Categories
Welcome to Music Torrent Tracker - Sound-Park  ι  JOIN US FOR FULL ACCESS  ι  Log In  ι  Forgot your password?

Buddy Guy - Born To Play Guitar (Lossless, Hi Res 2015)

Blues
 
Date: 10 october 2016
Added: StasOn11
Views: 1905
  • ARTIST: Buddy Guy
  • ALBUM / TITLE: Born To Play Guitar
  • RELEASE YEAR / DATE: 2015
  • COUNTRY: United States
  • STYLE: Chicago Blues, Electric Blues
  • LABEL: Silvertone
  • DURATION: 00:59:19
  • FILE FORMAT: FLAC, (tracks) 24 bits, 96 KHz
  • QUALITY: Lossless

  • RATING: 10 / 6    
  • VOTE:

  • DOWNLOAD: DOWNLOAD TORRENT
  • СИДЫ:

Torrent description


01. Born To Play Guitar (4:56)
02. Wear You Out (feat. Billy Gibbons) (3:31)
03. Back Up Mama (4:43)
04. Too Late (feat. Kim Wilson) (2:47)
05. Whiskey, Beer & Wine (4:30)
06. Kiss Me Quick (feat. Kim Wilson) (2:56)
07. Crying Out Of One Eye (4:02)
08. (Baby) You Got What It Takes (feat. Joss Stone) (3:18)
09. Turn Me Wild (4:37)
10. Crazy World (5:16)
11. Smarter Than I Was (5:28)
12. Thick Like Mississippi Mud (4:04)
13. Flesh & Bone (Dedicated to B.B. King) (with Van Morrison) (4:02)
14. Come Back Muddy (5:12)


Источник: papa1954

hdtracks.com

Контейнер: FLAC (*.flac)
Тип рипа: tracks

Разрядность: 24/96
Количество каналов: 2.0


foobar2000 1.1.6 / Dynamic Range Meter 1.1.1
log date: 2015-09-07 11:30:01

--------------------------------------------------------------------------------
Analyzed: Buddy Guy / Born To Play Guitar
--------------------------------------------------------------------------------

DR Peak RMS Duration Track
--------------------------------------------------------------------------------
DR8 -0.34 dB -11.12 dB 4:56 01-Born To Play Guitar
DR6 -0.12 dB -6.67 dB 3:31 02-Wear You Out (feat. Billy Gibbons)
DR6 -0.07 dB -8.40 dB 4:43 03-Back Up Mama
DR6 -0.20 dB -7.31 dB 2:47 04-Too Late (feat. Kim Wilson)
DR6 -0.31 dB -7.31 dB 4:30 05-Whiskey, Beer & Wine
DR6 -0.08 dB -6.64 dB 2:56 06-Kiss Me Quick (feat. Kim Wilson)
DR6 -0.07 dB -6.88 dB 4:02 07-Crying Out Of One Eye
DR6 -0.47 dB -7.44 dB 3:18 08-(Baby) You Got What It Takes (feat. Joss Stone)
DR6 -0.10 dB -6.89 dB 4:37 09-Turn Me Wild
DR6 -0.10 dB -7.28 dB 5:16 10-Crazy World
DR5 -0.06 dB -6.80 dB 5:28 11-Smarter Than I Was
DR6 -0.13 dB -6.59 dB 4:04 12-Thick Like Mississippi Mud
DR5 -0.06 dB -6.60 dB 4:02 13-Flesh & Bone (Dedicated to B.B. King) (with Van Morrison)
DR7 -0.20 dB -10.10 dB 5:12 14-Come Back Muddy
--------------------------------------------------------------------------------

Number of tracks: 14
Official DR value: DR6

Samplerate: 96000 Hz
Channels: 2
Bits per sample: 24
Bitrate: 4654 kbps
Codec: FLAC
================================================================================




Comments (4)


22 may 2017
StasOn11   
+1 
PR:XCityXXX GBXXX GBПостовХС
В
Л
Х

Citation:  voloh
Nice work thank you

You’re welcome!


22 may 2017
voloh   
+1 
PR:XCityXXX GBXXX GBПостовХС
В
Л
Х

Nice work thank you


29 april 2017
Kawok   
0 
PR:XCityXXX GBXXX GBПостовХС
В
Л
Х

Yeahhhhhhhhhhhhhhhhhhhh!!!


15 november 2016
Blues2   
+1 
PR:XCityXXX GBXXX GBПостовХС
В
Л
Х

One of the greatest electric blues guitarists ever!



 

Similar albums

+ More
  • Buddy Guy - Born To Play Guitar (Lossless, Hi Res 2015)
  • Download Buddy Guy - Born To Play Guitar (Lossless, Hi Res 2015) - free music torrent.

    Download Buddy Guy - Born To Play Guitar (Lossless, Hi Res 2015) for free in Lossless quality.

    You can download the torrent file on the top of the page
.

    Look for more music Buddy Guy


Please enable Javascript!
Пожалуйста включите Javascript, иначе данный и другие сайты могут работать не корректно! Узнать как включить Javascript можно на Google Support