Categories
Welcome to Music Torrent Tracker - Sound-Park  ι  JOIN US FOR FULL ACCESS  ι  Log In  ι  Forgot your password?

Mats Eilertsen - And Then Comes the Night (Lossless, Hi Res 2019)

Jazz
 
Date: 9 february 2019
Added: StasOn11
Views: 1105
  • ARTIST: Mats Eilertsen
  • ALBUM / TITLE: And Then Comes the Night
  • RELEASE YEAR / DATE: 2019
  • COUNTRY: Norway / Holland
  • STYLE: ECM Style Jazz, Modern Creative, Contemporary Jazz
  • LABEL: ECM Records - ECM 2619
  • DURATION: 00:47:30
  • FILE FORMAT: FLAC, (tracks) 24 bits, 96 KHz
  • QUALITY: Lossless
  • Site: matseilertsen.com

  • RATING: 10 / 2    
  • VOTE:

  • DOWNLOAD: DOWNLOAD TORRENT

Torrent description



01. 22 (04:58)
02. Perpetum (06:55)
03. Albatross (04:28)
04. After the Rain (02:20)
05. The Void (06:32)
06. Solace (02:46)
07. Sirens (04:37)
08. Then Comes the Night (05:04)
09. Soften (04:52)
10. 22 (Var.) (04:58)

Qobuz

Источник (релизер): Stephenten

His double bass has often featured on albums by artists such as Tord Gustavsen, Trygve Seim, Mathias Eick and Jakob Young. But Mats Eilertsen has always kept some time free for his own projects. With Harmen Fraanje on piano and Thomas Strønen on drums, the Norwegian double bass player has once again unveiled his understated poetry on this superb record And Then Comes The Night, the third album by the ten-year-old trio. Following Sails Set (2013), which was released on the brilliant label Hubro, this record was recorded in Lugano in May 2018 and reveals a group who are at the height of their complicity. Fans of producer Manfred Eicher will find all the ingredients of ECM works here, especially since the group come from Scandinavia, but the trio still manage to add a fresh twist to the recipe. And Then Comes The Night is not just your umpteenth album in the dense ECM catalogue. Eilertsen and his accomplices give pride of place to their improvisations. And by sticking relatively closely to the melodic framework, they achieve a tone and a sound of their own.

Mats Eilertsen – double bass
Harmen Fraanje – piano
Thomas Strønen – drums


foobar2000 1.4 / Dynamic Range Meter 1.1.1
log date: 2019-02-07 21:44:31

--------------------------------------------------------------------------------
Analyzed: Mats Eilertsen / And Then Comes The Night
--------------------------------------------------------------------------------

DR Peak RMS Duration Track
--------------------------------------------------------------------------------
DR14 -2.78 dB -22.12 dB 4:58 01-22
DR14 -2.40 dB -21.51 dB 6:56 02-Perpetum
DR14 -1.90 dB -20.50 dB 4:28 03-Albatross
DR14 -2.92 dB -22.69 dB 2:21 04-After The Rain
DR15 -2.50 dB -22.79 dB 6:33 05-The Void
DR14 -4.20 dB -22.22 dB 2:47 06-Solace
DR14 -2.03 dB -20.33 dB 4:37 07-Sirens
DR15 -0.50 dB -19.41 dB 5:04 08-Then Comes The Night
DR14 -2.58 dB -19.60 dB 4:52 09-Soften
DR14 -1.63 dB -21.47 dB 4:58 10-22 (Var.)
--------------------------------------------------------------------------------

Number of tracks: 10
Official DR value: DR14
Samplerate: 96000 Hz
Channels: 2
Bits per sample: 24
Bitrate: 2571 kbps
Codec: FLAC
================================================================================



Comments (2)


20 february 2019
gibrid13   
0 
PR:XCityXXX GBXXX GBПостовХС
В
Л
Х

The best music. Forever!!!


11 february 2019
aleox16   
0 
PR:XCityXXX GBXXX GBПостовХС
В
Л
Х

gracias



 

Please enable Javascript!
Пожалуйста включите Javascript, иначе данный и другие сайты могут работать не корректно! Узнать как включить Javascript можно на Google Support