Categories
Welcome to Music Torrent Tracker - Sound-Park  ι  JOIN US FOR FULL ACCESS  ι  Log In  ι  Forgot your password?

Yanni - Sensuous Chill (Lossless, Hi Res 2016)

New Age  Instrumental
 
Date: 17 february 2019
Added: StasOn11
Views: 2725
  • ARTIST: Yanni
  • ALBUM / TITLE: Sensuous Chill
  • RELEASE YEAR / DATE: 2016
  • COUNTRY: Greece
  • STYLE: New Age, Instrumental, Electronic
  • LABEL: Portrait / Sony Masterworks
  • DURATION: 01:07:41
  • FILE FORMAT: FLAC, (tracks) 24 bits, 44,1 KHz
  • QUALITY: Lossless
  • Site: yanni.com

  • RATING: 10 / 8    
  • VOTE:

  • DOWNLOAD: DOWNLOAD TORRENT
  • СИДЫ:

Torrent description



01. Thirst For Life (3:46)
02. Rapture (3:35)
03. Drive (3:55)
04. What You Get (4:35)
05. Desert Soul (3:36)
06. 1001 (3:53)
07. The Keeper (3:29)
08. Whispers In The Dark (3:52)
09. Seeing You Around (3:38)
10. Orchid (4:14)
11. Our Days (4:27)
12. A Little Too Late (3:54)
13. Dance For Me (4:33)
14. Retreat To Dream (3:33)
15. Test Of Time (3:56)
16. Can't Wait (4:07)
17. I'm So (4:38)

Qobuz

Источник (релизер): papa1954

Yanni Chrysomallis (Янни Хрисомаллис) родился 1954 г. в городе Каламата, Греция - стал известен всему миру благодаря потрясающим мелодиям синтезированного фортепиано и различных инструментов. Каждая новая мелодия Янни непохожа на предыдущую. Это один из тех редких музыкальных артистов, которые бросают вызов музыкальным стереотипам и своей музыкой стирают расовые и национальные преграды. Его стиль разнообразен. У него можно услышать множество интересных совмещений популярных мелодий и классической музыки. Помпезный синтезаторный стиль Янни не только доступен, но и вызывает волнение – это те два элемента, которые принесли ему успех и привели его в царство инструментальной музыки. У композитора все время появляется что-то новое в музыке.

more



foobar2000 1.3.9 / Dynamic Range Meter 1.1.1
log date: 2018-05-01 22:46:33

--------------------------------------------------------------------------------
Analyzed: Yanni / Sensuous Chill
--------------------------------------------------------------------------------

DR Peak RMS Duration Track
--------------------------------------------------------------------------------
DR6 -1.02 dB -8.11 dB 3:46 01-Thirst For Life
DR6 -1.02 dB -8.25 dB 3:35 02-Rapture
DR7 -0.92 dB -9.39 dB 3:55 03-Drive
DR6 -1.02 dB -8.37 dB 4:35 04-What You Get
DR7 -2.52 dB -10.49 dB 3:36 05-Desert Soul
DR6 -2.02 dB -9.19 dB 3:53 06-1001
DR5 -0.92 dB -7.97 dB 3:29 07-The Keeper
DR8 -0.83 dB -10.77 dB 3:52 08-Whispers In The Dark
DR6 -1.02 dB -9.18 dB 3:38 09-Seeing You Around
DR6 -0.92 dB -8.61 dB 4:14 10-Orchid
DR6 -0.92 dB -8.57 dB 4:27 11-Our Days
DR5 -1.52 dB -8.54 dB 3:54 12-A Little Too Late
DR5 -3.92 dB -9.64 dB 4:33 13-Dance For Me
DR6 -1.02 dB -8.63 dB 3:33 14-Retreat To Dream
DR6 -1.02 dB -8.66 dB 3:56 15-Test Of Time
DR6 -1.02 dB -8.45 dB 4:07 16-Can't Wait
DR7 -1.02 dB -10.10 dB 4:38 17-I'm So
--------------------------------------------------------------------------------

Number of tracks: 17
Official DR value: DR6

Samplerate: 44100 Hz
Channels: 2
Bits per sample: 24
Bitrate: 1634 kbps
Codec: FLAC
================================================================================



Comments (5)


23 march 2019
sorun2020   
0 
PR:XCityXXX GBXXX GBПостовХС
В
Л
Х

Thank you


18 february 2019
Fernandocine   
0 
PR:XCityXXX GBXXX GBПостовХС
В
Л
Х

Muchas gracias


18 february 2019
StasOn11   
0 
PR:XCityXXX GBXXX GBПостовХС
В
Л
Х

Citation:  Nasyroff
СПАСИБО!

Спасибо за "Спасибо"!


18 february 2019
Nasyroff   
+2 
PR:XCityXXX GBXXX GBПостовХС
В
Л
Х

СПАСИБО!


17 february 2019
Bagdee   
+1 
PR:XCityXXX GBXXX GBПостовХС
В
Л
Х

Thank you



 
Please enable Javascript!
Пожалуйста включите Javascript, иначе данный и другие сайты могут работать не корректно! Узнать как включить Javascript можно на Google Support