Categories
Welcome to Music Torrent Tracker - Sound-Park  ι  JOIN US FOR FULL ACCESS  ι  Log In  ι  Forgot your password?

Dream Theater - Distance Over Time (Bonus Track Version) (Lossless, Hi Res 2019)

Progressive Metal
 
Date: 22 february 2019
Added: StasOn11
Views: 7703
  • ARTIST: Dream Theater
  • ALBUM / TITLE: Distance Over Time (Bonus Track Version)
  • RELEASE YEAR / DATE: 2019
  • COUNTRY: United States
  • STYLE: Progressive Metal
  • LABEL: Inside Out Music
  • DURATION: 01:00:57
  • FILE FORMAT: FLAC, (tracks) 24 bits, 96 KHz
  • QUALITY: Lossless
  • Site: dreamtheater.net

  • RATING: 9.92 / 13    
  • VOTE:

  • DOWNLOAD: DOWNLOAD TORRENT

Torrent description



01. Untethered Angel 06:14
02. Paralyzed 04:17
03. Fall Into The Light 07:04
04. Barstool Warrior 06:43
05. Room 137 04:23
06. S2N 06:21
07. At Wit's End 09:20
08. Out Of Reach 04:04
09. Pale Blue Dot 08:26
10. Viper King (Bonus Track) 04:00

WIKI

Источник (релизер): Treuzti

Джон Петруччи прокомментировал альбом: «Когда я слушаю альбом, я отчетливо вспоминаю каждый момент процесса сочинения; где я стоял в комнате, что вдохновляло нас в тот момент и смысл каждой песни. Как продюсер, моя цель состояла в том, чтобы попытаться создать лучшую запись DREAM THEATER, которую мы когда-либо делали, чтобы слушатели могли просто окутаться музыкой. Я очень хотел, чтобы эта запись по-настоящему отражала дух, радость и страсть, которые были заложены в альбоме, и чтобы люди чувствовали органическую природу, индивидуальность и сырую энергию, которые группа захватила, находясь вместе в студии. Я думаю, что для меня это осуществимо, и я надеюсь, что другие люди будут чувствовать то же самое.»

В июне 2018 года участники DREAM THEATER уединились в частном месте в северной части штата Нью-Йорк, чтобы начать писать для нового альбома. Летом, проживая вместе в соседних резиденциях, группа проводила дни и ночи, создавая музыку для нового альбома в Yonderbarn — красивом и просторном амбаре, который был тщательно преобразован в современную студию звукозаписи. После интенсивного и чрезвычайно продуктивного периода групповых сессий и желая сохранить магию, которая была запечатлена в этом живописном и вдохновляющем месте, они решили записать альбом в той самой комнате, в которой они собрались, чтобы сочинять вместе. Совместная жизнь во время сочинения и записи альбома Distance Over Time ознаменовала еще один первый этап в 33-летней карьере группы. В результате получилась более тяжелая коллекция песен, которая демонстрирует ранние корни группы, исследуя новые территории в качестве музыкантов и друзей.

«Это было похоже на возвращение в летний лагерь», — говорит певец Джеймс Лабри. — «Быть рядом друг с другом все это время делало это гораздо более глубоким опытом. Я думаю, что песни отражают энергию. Было очень весело иметь ситуацию, настолько мощную на данный момент в нашей карьере.»

John Petrucci - Guitars, Production
John Myung - Bass
Mike Mangini - Drums, Percussion
James LaBrie - Vocals
Jordan Rudess - Keyboards


foobar2000 1.3.17 / Dynamic Range Meter 1.1.1
log date: 2019-02-21 17:36:15

--------------------------------------------------------------------------------
Analyzed: Dream Theater / Distance Over Time
--------------------------------------------------------------------------------

DR Peak RMS Duration Track
--------------------------------------------------------------------------------
DR6 -0.60 dB -8.15 dB 6:15 01-Untethered Angel
DR6 -0.60 dB -7.81 dB 4:18 02-Paralyzed
DR6 -0.60 dB -8.52 dB 7:05 03-Fall into the Light
DR6 -0.60 dB -8.05 dB 6:43 04-Barstool Warrior
DR6 -0.60 dB -7.28 dB 4:24 05-Room 137
DR6 -0.60 dB -7.88 dB 6:21 06-S2N
DR7 -0.60 dB -10.33 dB 9:21 07-At Wit's End
DR6 -0.60 dB -10.19 dB 4:05 08-Out of Reach
DR6 -0.60 dB -8.25 dB 8:26 09-Pale Blue Dot
DR6 -0.60 dB -7.93 dB 4:01 10-Viper King (Bonus track)
--------------------------------------------------------------------------------

Number of tracks: 10
Official DR value: DR6

Samplerate: 96000 Hz
Channels: 2
Bits per sample: 24
Bitrate: 3321 kbps
Codec: FLAC
================================================================================



Comments (10)


17 march 2019
sorunhoroz   
0 
PR:XCityXXX GBXXX GBПостовХС
В
Л
Х

Thank you


26 february 2019
aouema   
0 
PR:XCityXXX GBXXX GBПостовХС
В
Л
Х

Grazie


26 february 2019
BBB   
0 
PR:XCityXXX GBXXX GBПостовХС
В
Л
Х

Thanks!


24 february 2019
AIRBRO   
0 
PR:XCityXXX GBXXX GBПостовХС
В
Л
Х

guauu


24 february 2019
meloman50   
0 
PR:XCityXXX GBXXX GBПостовХС
В
Л
Х

Thanks. Nice disk .


22 february 2019
agustsons   
0 
PR:XCityXXX GBXXX GBПостовХС
В
Л
Х

Thanks!!!


22 february 2019
lanavarro66   
0 
PR:XCityXXX GBXXX GBПостовХС
В
Л
Х

excellent


22 february 2019
METALSHOP   
0 
PR:XCityXXX GBXXX GBПостовХС
В
Л
Х

THANKS.


22 february 2019
DarthRevan   
+1 
PR:XCityXXX GBXXX GBПостовХС
В
Л
Х

Thanx!!!!


22 february 2019
Bagdee   
+1 
PR:XCityXXX GBXXX GBПостовХС
В
Л
Х

Thank you



 

Please enable Javascript!
Пожалуйста включите Javascript, иначе данный и другие сайты могут работать не корректно! Узнать как включить Javascript можно на Google Support