Categories
Welcome to Music Torrent Tracker - Sound-Park  ι  JOIN US FOR FULL ACCESS  ι  Log In  ι  Forgot your password?

Blackbirch - Neapolis (Lossless, Hi Res 2019)

Progressive Metal
 
Date: 2 march 2019
Added: StasOn11
Views: 1312
  • ARTIST: Blackbirch
  • ALBUM / TITLE: Neapolis
  • RELEASE YEAR / DATE: 2019
  • COUNTRY: Modena, Italy
  • STYLE: Progressive Metal
  • DURATION: 00:51:42
  • FILE FORMAT: FLAC, (tracks) 24 bits, 44,1 KHz
  • QUALITY: Lossless

  • RATING: 10 / 5    
  • VOTE:

  • DOWNLOAD: DOWNLOAD TORRENT
  • СИДЫ:

Torrent description



◈ 01 - Neapolis (00:01:42)
◈ 02 - The Glass (00:05:01)
◈ 03 - Calliope (00:05:00)
◈ 04 - Living In The Past (00:04:46)
◈ 05 - Brick After Brick (00:05:32)
◈ 06 - X - The Missing Piece (00:03:13)
◈ 07 - X - Colliding (00:04:24)
◈ 08 - Asphalt Seas (00:05:42)
◈ 09 - Skyscrapers (00:10:43)
◈ 10 - Our Image (00:05:35)

Вandcamp

Источник (релизер): ЯОR

Cesare Augusto Giorgini - Vocals, Guitar, Keyboards
Francesco Pini - Guitar, Vocals, Keyboards
Roberto Palmieri - Guitar
Emanuele Tognoli - Bass
Marco Garbin - Drums



foobar2000 1.3.9 / Замер динамического диапазона (DR) 1.1.1
Дата отчёта: 2019-02-28 13:35:37

--------------------------------------------------------------------------------
Анализ: Blackbirch / Neapolis
--------------------------------------------------------------------------------

DR Пики RMS Продолжительность трека
--------------------------------------------------------------------------------
DR7 -0.09 дБ -10.48 дБ 1:42 1-Neapolis
DR6 -0.09 дБ -7.78 дБ 5:01 2-The Glass
DR8 -0.09 дБ -9.85 дБ 5:00 3-Calliope
DR5 -0.08 дБ -9.91 дБ 4:47 4-Living In The Past
DR6 -0.09 дБ -7.80 дБ 5:32 5-Brick After Brick
DR11 -0.09 дБ -14.82 дБ 3:14 6-X - The Missing Piece
DR6 -0.09 дБ -8.02 дБ 4:25 7-X - Colliding
DR8 -0.09 дБ -10.47 дБ 5:43 8-Asphalt Seas
DR6 -0.09 дБ -8.91 дБ 10:44 9-Skyscrapers
DR6 -0.09 дБ -9.54 дБ 5:36 10-Our Image
--------------------------------------------------------------------------------

Количество треков: 10
Реальные значения DR: DR7

Частота: 44100 Гц
Каналов: 2
Разрядность: 24
Битрейт: 816 кбит/с
Кодек: FLAC
================================================================================



Comments (4)


8 march 2019
sorun1120   
0 
PR:XCityXXX GBXXX GBПостовХС
В
Л
Х

Thank you


8 march 2019
sorunhoroz   
0 
PR:XCityXXX GBXXX GBПостовХС
В
Л
Х

Thank you


4 march 2019
agustsons   
0 
PR:XCityXXX GBXXX GBПостовХС
В
Л
Х

Thanks!!!


2 march 2019
aleox16   
0 
PR:XCityXXX GBXXX GBПостовХС
В
Л
Х

gracias



 

Similar albums

Please enable Javascript!
Пожалуйста включите Javascript, иначе данный и другие сайты могут работать не корректно! Узнать как включить Javascript можно на Google Support