Categories
Welcome to Music Torrent Tracker - Sound-Park  ι  JOIN US FOR FULL ACCESS  ι  Log In  ι  Forgot your password?

IV Of Spades - CLAPCLAPCLAP! (Lossless, Hi Res 2019)

Alternative  Indie POP
 
Date: 2 march 2019
Added: StasOn11
Views: 1121
  • ARTIST: IV Of Spades
  • ALBUM / TITLE: CLAPCLAPCLAP!
  • RELEASE YEAR / DATE: 2019
  • COUNTRY: Philippines
  • STYLE: Alternative, Indie Pop
  • LABEL: © 2019 Warner Music Philippines
  • DURATION: 00:54:53
  • FILE FORMAT: FLAC, (tracks) 24 bits, 96 KHz
  • QUALITY: Lossless

  • RATING: 10 / 4    
  • VOTE:

  • DOWNLOAD: DOWNLOAD TORRENT
  • СИДЫ:

Torrent description



01. CLAPCLAPCLAP!
02. Sweet Shadow
03. Bata, Dahan-Dahan!
04. Bawat Kaluluwa
05. Not My Energy
06. Come Inside Of My Heart
07. The Novel Of My Mind
08. Dulo Ng Hangganan
09. In My Prison
10. My Juliana
11. I'm A Butterfly
12. I Ain't Perfect
13. Take That Man
14. Captivated
15. I Would Rather Live Alone (I'm Not Who I'm Today)

Qobuz

Источник (релизер): Dattura


foobar2000 1.3.16 / Dynamic Range Meter 1.1.1
log date: 2019-01-19 20:27:34

--------------------------------------------------------------------------------
Analyzed: IV Of Spades / CLAPCLAPCLAP!
--------------------------------------------------------------------------------

DR Peak RMS Duration Track
--------------------------------------------------------------------------------
DR24 0.00 dB -25.94 dB 0:15 01-CLAPCLAPCLAP!
DR8 0.00 dB -9.16 dB 4:04 02-Sweet Shadow
DR10 0.00 dB -11.89 dB 4:06 03-Bata, Dahan-Dahan!
DR8 -0.01 dB -10.37 dB 3:59 04-Bawat Kaluluwa
DR7 0.00 dB -9.09 dB 4:03 05-Not My Energy
DR9 0.00 dB -10.70 dB 4:06 06-Come Inside Of My Heart
DR10 -0.57 dB -14.51 dB 1:21 07-The Novel Of My Mind
DR8 0.00 dB -10.47 dB 5:28 08-Dulo Ng Hangganan
DR9 0.00 dB -10.41 dB 3:39 09-In My Prison
DR10 -0.01 dB -12.05 dB 4:46 10-My Juliana
DR8 -0.01 dB -10.23 dB 4:49 11-I'm A Butterfly
DR8 0.00 dB -9.53 dB 4:23 12-I Ain't Perfect
DR7 0.00 dB -8.75 dB 3:59 13-Take That Man
DR11 -0.01 dB -13.00 dB 3:40 14-Captivated
DR8 0.00 dB -11.27 dB 2:15 15-I Would Rather Live Alone (I'm Not Who I'm Today)
--------------------------------------------------------------------------------

Number of tracks: 15
Official DR value: DR10

Samplerate: 96000 Hz
Channels: 2
Bits per sample: 24
Bitrate: 2179 kbps
Codec: FLAC
================================================================================



Comments (4)


13 march 2019
Atismd   
0 
PR:XCityXXX GBXXX GBПостовХС
В
Л
Х

Hires kaya talaga yan? LOL Asa.


8 march 2019
sorunhoroz   
0 
PR:XCityXXX GBXXX GBПостовХС
В
Л
Х

Thank you


6 march 2019
Aren   
0 
PR:XCityXXX GBXXX GBПостовХС
В
Л
Х

Sana may Eraserheads din kahit di hi res


2 march 2019
aleox16   
+2 
PR:XCityXXX GBXXX GBПостовХС
В
Л
Х

gracias



 

Similar albums

Please enable Javascript!
Пожалуйста включите Javascript, иначе данный и другие сайты могут работать не корректно! Узнать как включить Javascript можно на Google Support