Categories
Welcome to Music Torrent Tracker - Sound-Park  ι  JOIN US FOR FULL ACCESS  ι  Log In  ι  Forgot your password?

Blues Company - Ain't Givin' Up (Lossless, Hi Res 2019)

Blues
 
Date: 2 march 2019
Added: StasOn11
Views: 2100
  • ARTIST: Blues Company
  • ALBUM / TITLE: Ain't Givin' Up
  • RELEASE YEAR / DATE: 2019
  • COUNTRY: Germany
  • STYLE: Electric Blues
  • LABEL: in-akustik HD
  • DURATION: 00:55:53
  • FILE FORMAT: FLAC, (tracks) 24 bits, 96 KHz
  • QUALITY: Lossless

  • RATING: 10 / 8    
  • VOTE:

  • DOWNLOAD: DOWNLOAD TORRENT
  • СИДЫ:

Torrent description



01. Ain't Givin' Up (06:22)
02. Guns (05:19)
03. The News (04:04)
04. Waiting For Springtime (06:54)
05. Sticks And Stones (05:06)
06. Georgia On My Mind (04:58)
07. One Shot (05:02)
08. Balsha's Dream (03:49)
09. Route 66 (03:37)
10. I'm Mad (05:34)
11. Precious Lord (05:30)

HighresAudio

Источник (релизер): Stephenten

With more than 40 years on the move for the blues, the Blues Company is one of the pioneers of the German Blues-Scene and one of the oldest still active German bands ever.
Various high-profile awards such as 'Jazz Award', ‘Award of the German Record Critics' for several productions, 'Blues Louis' and the 'Lifetime Award' (BiG - Blues in Germany) for Todor 'Tosho' Todorovic are testifying the quality of this combo.
Regularly their albums are selected by the high-end faction in the hi-fi area to impressively demonstrate the brilliance and performance of the finest speakers and the finest amplifier technology.
Ain’t Givin' Up consists of eight stylistically diversified own compositions as well as three cover versions. A new masterpiece of German Blues art.

Mike Titre, guitars, vocals
Tosho Todorovic, guitars, vocals
Arnold Ogrodnik, bass
Florian Schaube, drums


foobar2000 1.4 / Dynamic Range Meter 1.1.1
log date: 2019-02-28 16:43:37

--------------------------------------------------------------------------------
Analyzed: Blues Company / Ain't Givin' Up
--------------------------------------------------------------------------------

DR Peak RMS Duration Track
--------------------------------------------------------------------------------
DR6 -0.71 dB -8.33 dB 6:19 01-Ain't Givin' Up
DR5 -0.72 dB -7.29 dB 5:18 02-Guns
DR6 -0.72 dB -8.62 dB 4:02 03-The News
DR6 -0.72 dB -7.88 dB 6:53 04-Waiting for Springtime
DR7 -0.72 dB -8.86 dB 5:04 05-Sticks and Stones
DR10 -0.72 dB -12.50 dB 4:57 06-Georgia on My Mind
DR7 -0.72 dB -9.21 dB 5:01 07-One Shot
DR8 -0.72 dB -10.49 dB 3:48 08-Balsha's Dream
DR6 -0.71 dB -8.60 dB 3:36 09-Route 66
DR8 -0.72 dB -9.77 dB 5:32 10-I'm Mad
DR12 -0.72 dB -14.52 dB 5:29 11-Precious Lord
--------------------------------------------------------------------------------

Number of tracks: 11
Official DR value: DR7
Samplerate: 96000 Hz
Channels: 2
Bits per sample: 24
Bitrate: 2178 kbps
Codec: FLAC
================================================================================



Comments (6)


14 march 2019
edkarlos   
0 
PR:XCityXXX GBXXX GBПостовХС
В
Л
Х

yes !!! blues the origin of the rock .... sensational
thank you very much


8 march 2019
sorunhoroz   
0 
PR:XCityXXX GBXXX GBПостовХС
В
Л
Х

Thank you


2 march 2019
StasOn11   
+1 
PR:XCityXXX GBXXX GBПостовХС
В
Л
Х

Citation:  tcbr18vep
Благодарю

Спасибо за "Благодарность"!


2 march 2019
Phantastych   
+1 
PR:XCityXXX GBXXX GBПостовХС
В
Л
Х

Thanks


2 march 2019
tcbr18vep   
+3 
PR:XCityXXX GBXXX GBПостовХС
В
Л
Х

Благодарю


2 march 2019
aleox16   
+2 
PR:XCityXXX GBXXX GBПостовХС
В
Л
Х

gracias



 

Similar albums

+ More
Please enable Javascript!
Пожалуйста включите Javascript, иначе данный и другие сайты могут работать не корректно! Узнать как включить Javascript можно на Google Support