Categories
Welcome to Music Torrent Tracker - Sound-Park  ι  JOIN US FOR FULL ACCESS  ι  Log In  ι  Forgot your password?

Katarina Pejak - Roads That Cross (Lossless, Hi Res 2019)

Blues
 
Date: 2 march 2019
Added: StasOn11
Views: 2053
  • ARTIST: Katarina Pejak
  • ALBUM / TITLE: Roads That Cross
  • RELEASE YEAR / DATE: 2019
  • COUNTRY: Serbia / United States
  • STYLE: Electric Blues
  • LABEL: Ruf Records
  • DURATION: 00:43:00
  • FILE FORMAT: FLAC, (tracks) 24 bits, 44,1 KHz
  • QUALITY: Lossless

  • RATING: 9.92 / 12    
  • VOTE:

  • DOWNLOAD: DOWNLOAD TORRENT
  • СИДЫ:

Torrent description



01. Nature of My Blues (03:17)
02. Sex Kills (04:39)
03. Cool Drifter (02:58)
04. Moonlight Rider (04:24)
05. Old Pain (04:20)
06. Chasing Summer (03:36)
07. Turtle Blues (04:27)
08. Down with Me (04:19)
09. She's Coming After You (03:29)
10. Roads That Cross (03:28)
11. The Harder You Kick (04:03)

hHghresAudio

Источник (релизер): Stephenten

It takes a brave artist to blaze their own trail. From her birth-city of Belgrade to the Marz Studios in Texas where she recorded her dazzling new album, Katarina Pejak has walked countless roads and stuck a thousand pins in the map. Now, with Roads That Cross, this award-winning performer unveils a fresh set of songs that follow her muse wherever it leads her. Inspired by blues, jazz, country and rock 'n' roll ? and shaped by all the cities she's called home - this is music that crosses borders and brings people together. As producer Mike Zito says: "Katarina is one of a kind?"

Making her debut on the iconic Ruf Records - and taking part in the label's famous Blues Caravan tour in 2019 - Roads That Cross is the stone-cold classic that Katarina has promised since the start. Since raiding her dad's record collection for vintage blues as a teenager, taking her first steps on the Serbian blues circuit and winning a scholarship to the famed Berklee College of Music, this visionary artist has already been acclaimed for early releases like Perfume & Luck (2010), First Hand Stories (2012) and Old New Borrowed And Blues (2016).

It's all been leading to Roads That Cross: the new album that takes you on a magic carpet ride of emotion and mood. There's She's Coming After You, with its Latin groove, echo-chamber guitars and a lyric about a femme fatale who "looks like the Devil's daughter/Walks like a baroness". There's the choppy reggae-flavoured Down With Me, and the expert jazz of The Harder You Kick, carried by organ and Katarina's astonishing vocal. The upbeat Cool Drifter combines escapism with a soul edge, while Moonlight Rider will satisfy the blues hardcore, its gritty riffs and dusty groove addressing a lover that she knows will leave. "I didn't realise until after making the album," she reflects, "but most of these songs are about good-byes."

For everyone else, Roads That Cross is the start of a beautiful relationship. Following her meteoric early career, Katarina Pejak stands at a crossroads, ready to step into the fast lane. "She'll make you think," concludes Zito. "She'll make you cry. By the end of this record, she'll have you in the palm of her hand. For Katarina, this is only the beginning..."

Katarina Pejak, vocals, keyboards
Laura Chavez, guitar
Lonnie Trevino Jr., bass
Damien LLanes, drums
Mike Zito, guitar, backing vocals



foobar2000 1.4 / Dynamic Range Meter 1.1.1
log date: 2019-02-28 17:46:39

--------------------------------------------------------------------------------
Analyzed: Katarina Pejak / Roads That Cross
--------------------------------------------------------------------------------

DR Peak RMS Duration Track
--------------------------------------------------------------------------------
DR8 -0.52 dB -10.39 dB 3:19 01-Nature Of My Blues
DR10 -0.51 dB -12.77 dB 4:39 02-Sex Kills
DR9 -0.51 dB -10.58 dB 3:00 03-Cool Drifter
DR7 -0.51 dB -9.86 dB 4:26 04-Moonlight Rider
DR13 -0.52 dB -16.05 dB 4:20 05-Old Pain
DR9 -0.51 dB -10.52 dB 3:39 06-Chasing Summer
DR7 -0.52 dB -9.55 dB 4:29 07-Turtle Blues
DR9 -0.51 dB -10.92 dB 4:22 08-Down With Me
DR9 -0.51 dB -11.16 dB 3:32 09-She's Coming After You
DR10 -0.52 dB -12.72 dB 3:31 10-Roads That Cross
DR11 -0.52 dB -14.11 dB 4:01 11-The Harder You Kick
--------------------------------------------------------------------------------

Number of tracks: 11
Official DR value: DR9
Samplerate: 44100 Hz
Channels: 2
Bits per sample: 24
Bitrate: 2120 kbps
Codec: FLAC
================================================================================



Comments (16)


13 march 2019
aouema   
0 
PR:XCityXXX GBXXX GBПостовХС
В
Л
Х

grazie


8 march 2019
sorunhoroz   
0 
PR:XCityXXX GBXXX GBПостовХС
В
Л
Х

Thank you


5 march 2019
Nasyroff   
0 
PR:XCityXXX GBXXX GBПостовХС
В
Л
Х

СПАСИБО!


4 march 2019
StasOn11   
0 
PR:XCityXXX GBXXX GBПостовХС
В
Л
Х

Citation:  DimonAlena
спасибо !

Citation:  yuriy75
огромное спасибо за релиз!!!

Благодарю за "Спасибо"!


3 march 2019
DimonAlena   
+3 
PR:XCityXXX GBXXX GBПостовХС
В
Л
Х

спасибо !


2 march 2019
yuriy75   
+3 
PR:XCityXXX GBXXX GBПостовХС
В
Л
Х

огромное спасибо за релиз!!!


2 march 2019
FREDZAPPA   
+2 
PR:XCityXXX GBXXX GBПостовХС
В
Л
Х

MUY INTERESANTE EL BLUES A LA RUSA!


2 march 2019
coyotte   
+2 
PR:XCityXXX GBXXX GBПостовХС
В
Л
Х

merci


2 march 2019
StasOn11   
+2 
PR:XCityXXX GBXXX GBПостовХС
В
Л
Х

Citation:  igormask
От души, свежее дыхание! Приятный тембр с перчинкой ...

Citation:  tcbr18vep
Благодарю

Спасибо за "Благодарность"!


2 march 2019
igormask   
+2 
PR:XCityXXX GBXXX GBПостовХС
В
Л
Х

От души, свежее дыхание! Приятный тембр с перчинкой ...


+ More
 

Similar albums

Please enable Javascript!
Пожалуйста включите Javascript, иначе данный и другие сайты могут работать не корректно! Узнать как включить Javascript можно на Google Support