Categories
Welcome to Music Torrent Tracker - Sound-Park  ι  JOIN US FOR FULL ACCESS  ι  Log In  ι  Forgot your password?

Queensryche - The Verdict (Lossless, Hi Res 2019)

Progressive Metal
 
Date: 9 march 2019
Added: StasOn11
Views: 1428
  • ARTIST: Queensrÿche
  • ALBUM / TITLE: The Verdict
  • RELEASE YEAR / DATE: 2019
  • COUNTRY: USA ( Bellevue, WA)
  • STYLE: Progressive Metal
  • LABEL: Century Media Records
  • DURATION: 00:44:18
  • FILE FORMAT: FLAC, (tracks) 24 bits, 48 KHz
  • QUALITY: Lossless
  • Site: queensrycheofficial.com

  • RATING: 10 / 6    
  • VOTE:

  • DOWNLOAD: DOWNLOAD TORRENT
  • СИДЫ:

Torrent description



01. Blood of the Levant (3:27)
02. Man the Machine (3:51)
03. Light-years (4:09)
04. Inside Out (4:31)
05. Propaganda Fashion (3:36)
06. Dark Reverie (4:23)
07. Bent (5:59)
08. Inner Unrest (3:50)
09. Launder the Conscience (5:15)
10. Portrait (5:16)

Qobuz

Источник (релизер): Andromaxvic

Todd La Torre - Vocals
Michael Wilton - Guitars
Parker Lundgren - Guitars
Eddie Jackson - Bass
Scott Rockenfield - Drums


foobar2000 1.4.2 / Замер динамического диапазона (DR) 1.1.1
Дата отчёта: 2019-03-09 09:32:03

--------------------------------------------------------------------------------
Анализ: Queensryche / The Verdict
--------------------------------------------------------------------------------

DR Пики RMS Продолжительность трека
--------------------------------------------------------------------------------
DR7 -0.10 дБ -7.26 дБ 3:27 01-Blood of the Levant
DR6 -0.10 дБ -7.00 дБ 3:51 02-Man the Machine
DR7 -0.10 дБ -8.34 дБ 4:09 03-Light-years
DR7 -0.10 дБ -9.63 дБ 4:31 04-Inside Out
DR7 -0.10 дБ -7.96 дБ 3:36 05-Propaganda Fashion
DR7 -0.10 дБ -8.20 дБ 4:23 06-Dark Reverie
DR7 -0.10 дБ -7.94 дБ 5:59 07-Bent
DR6 -0.10 дБ -7.85 дБ 3:50 08-Inner Unrest
DR6 -0.10 дБ -7.71 дБ 5:15 09-Launder the Conscience
DR7 -0.10 дБ -9.23 дБ 5:16 10-Portrait
--------------------------------------------------------------------------------

Количество треков: 10
Реальные значения DR: DR7

Частота: 48000 Гц
Каналов: 2
Разрядность: 24
Битрейт: 1819 кбит/с
Кодек: FLAC
================================================================================



Comments (3)


2 may 2019
knut63   
0 
PR:XCityXXX GBXXX GBПостовХС
В
Л
Х


Нормально приплющило!


2 may 2019
knut63   
0 
PR:XCityXXX GBXXX GBПостовХС
В
Л
Х

Надо слухануть. Первые альбомы мне нравились больше (до 1990 г). Потом что-то не то пошло.


9 march 2019
lanavarro66   
+1 
PR:XCityXXX GBXXX GBПостовХС
В
Л
Х

excellent



 

Similar albums

+ More
Please enable Javascript!
Пожалуйста включите Javascript, иначе данный и другие сайты могут работать не корректно! Узнать как включить Javascript можно на Google Support