Categories
Welcome to Music Torrent Tracker - Sound-Park  ι  JOIN US FOR FULL ACCESS  ι  Log In  ι  Forgot your password?

Tesla - Shock (Lossless, Hi Res 2019)

Hard Rock
 
Date: 9 march 2019
Added: StasOn11
Views: 1223
  • ARTIST: Tesla
  • ALBUM / TITLE: Shock
  • RELEASE YEAR / DATE: 2019
  • COUNTRY: United States
  • STYLE: Hard Rock
  • LABEL: Universal Music Enterprises
  • DURATION: 00:44:11
  • FILE FORMAT: FLAC, (tracks) 24 bits, 48 KHz
  • QUALITY: Lossless

  • RATING: 10 / 4    
  • VOTE:

  • DOWNLOAD: DOWNLOAD TORRENT

Torrent description



◈ 01 - You Won't Take Me Alive (00:03:33)
◈ 02 - Taste Like (00:03:11)
◈ 03 - We Can Rule The World (00:04:14)
◈ 04 - Shock (00:03:36)
◈ 05 - Love Is A Fire (00:03:30)
◈ 06 - California Summer Song (00:02:57)
◈ 07 - Forever Loving You (00:03:42)
◈ 08 - The Mission (00:04:03)
◈ 09 - Tied To The Tracks (00:03:28)
◈ 10 - Afterlife (00:04:39)
◈ 11 - I Want Everything (00:03:24)
◈ 12 - Comfort Zone (00:03:48)

Qobuz

Источник (релизер): ЯОR


foobar2000 1.4.2 beta 2 / Dynamic Range Meter 1.1.1
log date: 2019-03-08 15:32:23

--------------------------------------------------------------------------------
Analyzed: Tesla / Shock
--------------------------------------------------------------------------------

DR Peak RMS Duration Track
--------------------------------------------------------------------------------
DR8 -1.31 dB -9.84 dB 3:34 01-You Won't Take Me Alive
DR7 -1.29 dB -9.70 dB 3:12 02-Taste Like
DR7 -1.31 dB -10.05 dB 4:15 03-We Can Rule The World
DR7 -1.30 dB -9.18 dB 3:37 04-Shock
DR7 -1.32 dB -9.86 dB 3:31 05-Love Is A Fire
DR7 -1.25 dB -9.60 dB 2:58 06-California Summer Song
DR7 -1.28 dB -9.65 dB 3:42 07-Forever Loving You
DR7 -1.31 dB -10.05 dB 4:03 08-The Mission
DR7 -1.29 dB -9.67 dB 3:29 09-Tied To The Tracks
DR7 -1.25 dB -9.71 dB 4:39 10-Afterlife
DR8 -1.30 dB -9.98 dB 3:25 11-I Want Everything
DR7 -1.29 dB -10.23 dB 3:49 12-Comfort Zone
--------------------------------------------------------------------------------

Number of tracks: 12
Official DR value: DR7

Samplerate: 48000 Hz
Channels: 2
Bits per sample: 24
Bitrate: 1767 kbps
Codec: FLAC
================================================================================



Comments (2)


10 march 2019
Radja   
0 
PR:XCityXXX GBXXX GBПостовХС
В
Л
Х

Спасибо!!!!


9 march 2019
lanavarro66   
+1 
PR:XCityXXX GBXXX GBПостовХС
В
Л
Х

excellent



 

Please enable Javascript!
Пожалуйста включите Javascript, иначе данный и другие сайты могут работать не корректно! Узнать как включить Javascript можно на Google Support