Categories
Welcome to Music Torrent Tracker - Sound-Park  ι  JOIN US FOR FULL ACCESS  ι  Log In  ι  Forgot your password?

Backyard Babies - Sliver And Gold (Lossless, Hi Res 2019)

Hard Rock  Rock n Roll  Punk
 
Date: 9 march 2019
Added: StasOn11
Views: 1442
  • ARTIST: Backyard Babies
  • ALBUM / TITLE: Sliver And Gold
  • RELEASE YEAR / DATE: 2019
  • COUNTRY: United States
  • STYLE: Hard Rock, Rock & Roll, Punk
  • LABEL: © (P) 2019 Century Media Records
  • DURATION: 00:35:04
  • FILE FORMAT: FLAC, (tracks) 24 bits, 96 KHz
  • QUALITY: Lossless

  • RATING: 9.13 / 8    
  • VOTE:

  • DOWNLOAD: DOWNLOAD TORRENT
  • СИДЫ:

Torrent description



01. Good Morning Midnight (2:59)
02. Simple Being Sold (2:50)
03. Shovin' Rocks (3:20)
04. Ragged Flag (3:19)
05. Yes to All No (3:08)
06. Bad Seeds (3:49)
07. 44 Undead (3:23)
08. Sliver and Gold (3:15)
09. A Day Late in My Dollar Shorts (2:47)
10. Laugh Now Cry Later (6:15)

Qobuz

Источник (релизер): Andromaxvic



foobar2000 1.4.2 / Замер динамического диапазона (DR) 1.1.1
Дата отчёта: 2019-03-09 09:54:45

--------------------------------------------------------------------------------
Анализ: Backyard Babies / Sliver And Gold
--------------------------------------------------------------------------------

DR Пики RMS Продолжительность трека
--------------------------------------------------------------------------------
DR6 -0.10 дБ -7.69 дБ 2:59 01-Good Morning Midnight
DR6 -0.30 дБ -7.57 дБ 2:50 02-Simple Being Sold
DR5 -1.00 дБ -7.29 дБ 3:20 03-Shovin' Rocks
DR6 -0.80 дБ -8.58 дБ 3:19 04-Ragged Flag
DR6 -0.10 дБ -8.14 дБ 3:08 05-Yes to All No
DR7 -0.10 дБ -8.19 дБ 3:49 06-Bad Seeds
DR7 -0.10 дБ -7.85 дБ 3:23 07-44 Undead
DR6 -0.10 дБ -7.43 дБ 3:15 08-Sliver and Gold
DR5 -0.80 дБ -6.84 дБ 2:47 09-A Day Late in My Dollar Shorts
DR7 -0.80 дБ -10.87 дБ 6:15 10-Laugh Now Cry Later
--------------------------------------------------------------------------------

Количество треков: 10
Реальные значения DR: DR6

Частота: 96000 Гц
Каналов: 2
Разрядность: 24
Битрейт: 2702 кбит/с
Кодек: FLAC
================================================================================



Comments (3)


13 march 2019
aleox16   
0 
PR:XCityXXX GBXXX GBПостовХС
В
Л
Х

gracias


13 march 2019
sugarfromhell   
0 
PR:XCityXXX GBXXX GBПостовХС
В
Л
Х

thanks


10 march 2019
Radja   
0 
PR:XCityXXX GBXXX GBПостовХС
В
Л
Х

Спасибо!!!!



 

Similar albums

+ More
Please enable Javascript!
Пожалуйста включите Javascript, иначе данный и другие сайты могут работать не корректно! Узнать как включить Javascript можно на Google Support