Categories
Welcome to Music Torrent Tracker - Sound-Park  ι  JOIN US FOR FULL ACCESS  ι  Log In  ι  Forgot your password?

Children Of Bodom - Hexed (Deluxe Version) (Lossless, Hi Res 2019)

Death Metal
 
Date: 9 march 2019
Added: StasOn11
Views: 1330
  • ARTIST: Children Of Bodom
  • ALBUM / TITLE: Hexed (Deluxe Version)
  • RELEASE YEAR / DATE: 2019
  • COUNTRY: Finland
  • STYLE: Melodic Death Metal
  • LABEL: © 2019 Nuclear Blast
  • DURATION: 00:58:42
  • FILE FORMAT: FLAC, (tracks) 24 bits, 44,1 KHz
  • QUALITY: Lossless

  • RATING: 10 / 7    
  • VOTE:

  • DOWNLOAD: DOWNLOAD TORRENT

Torrent description



01. This Road (4:33)
02. Under Grass and Clover (3:33)
03. Glass Houses (3:28)
04. Hecate's Nightmare (4:10)
05. Kick in a Spleen (3:35)
06. Platitudes and Barren Words (4:14)
07. Hexed (5:03)
08. Relapse (The Nature of My Crime) (3:26)
09. Say Never Look Back (4:23)
10. Soon Departed (4:54)
11. Knuckleduster (3:28)
12. I Worship Chaos (Live) (3:35)
13. Morrigan (Live) (4:59)
14. Knuckleduster (Remix) (5:30)

Qobuz

Источник (релизер): Andromaxvic


foobar2000 1.4.2 / Замер динамического диапазона (DR) 1.1.1
Дата отчёта: 2019-03-08 17:53:17

--------------------------------------------------------------------------------
Анализ: Children Of Bodom / Hexed (Deluxe Version)
--------------------------------------------------------------------------------

DR Пики RMS Продолжительность трека
--------------------------------------------------------------------------------
DR8 -0.85 дБ -9.20 дБ 4:33 01-This Road
DR8 -0.85 дБ -9.53 дБ 3:33 02-Under Grass and Clover
DR8 -0.85 дБ -9.47 дБ 3:28 03-Glass Houses
DR8 -0.85 дБ -10.04 дБ 4:10 04-Hecate's Nightmare
DR7 -0.85 дБ -9.09 дБ 3:35 05-Kick in a Spleen
DR7 -0.85 дБ -8.93 дБ 4:14 06-Platitudes and Barren Words
DR7 -0.85 дБ -9.24 дБ 5:03 07-Hexed
DR8 -0.85 дБ -9.50 дБ 3:26 08-Relapse (The Nature of My Crime)
DR7 -0.85 дБ -9.01 дБ 4:23 09-Say Never Look Back
DR8 -0.85 дБ -9.50 дБ 4:54 10-Soon Departed
DR7 -0.85 дБ -9.47 дБ 3:28 11-Knuckleduster
DR7 -1.05 дБ -8.81 дБ 3:35 12-I Worship Chaos (Live)
DR7 -1.05 дБ -8.57 дБ 4:59 13-Morrigan (Live)
DR7 -0.85 дБ -10.06 дБ 5:30 14-Knuckleduster (Remix)
--------------------------------------------------------------------------------

Количество треков: 14
Реальные значения DR: DR8

Частота: 44100 Гц
Каналов: 2
Разрядность: 24
Битрейт: 1444 кбит/с
Кодек: FLAC
================================================================================



Comments (2)


9 march 2019
METALSHOP   
0 
PR:XCityXXX GBXXX GBПостовХС
В
Л
Х

THANKS.


9 march 2019
lanavarro66   
0 
PR:XCityXXX GBXXX GBПостовХС
В
Л
Х

excellent



 

Please enable Javascript!
Пожалуйста включите Javascript, иначе данный и другие сайты могут работать не корректно! Узнать как включить Javascript можно на Google Support