Categories
Welcome to Music Torrent Tracker - Sound-Park  ι  JOIN US FOR FULL ACCESS  ι  Log In  ι  Forgot your password?

VA - Joni 75: A Joni Mitchell Birthday Celebration (Lossless, Hi Res 2019)

Classic Rock  Folk
 
Date: 9 march 2019
Added: StasOn11
Views: 736
  • ARTIST: VA
  • ALBUM / TITLE: Joni 75: A Joni Mitchell Birthday Celebration
  • RELEASE YEAR / DATE: 2019
  • COUNTRY: International
  • STYLE: Rock, Folk, Singer-Songwriter
  • LABEL: UMC Decca Crossover
  • DURATION: 01:15:33
  • FILE FORMAT: FLAC, (tracks) 24 bits, 48 KHz
  • QUALITY: Lossless
  • Site: jonimitchell.com

  • RATING: 10 / 1    
  • VOTE:

  • DOWNLOAD: DOWNLOAD TORRENT

Torrent description



01. Dreamland (Los Lobos) (06:06)
02. Help Me (Chaka Khan) (04:42)
03. Amelia (Diana Krall) (07:04)
04. All I Want (Rufus Wainwright) (03:46)
05. Coyote (Glen Hansard) (06:34)
06. River (James Taylor) (03:28)
07. Both Sides Now (Seal) (06:02)
08. Our House (Graham Nash) (03:29)
09. A Case Of You (Kris Kristofferson & Brandi Carlile) (04:46)
10. Down To You (Brandi Carlile) (05:50)
11. Blue ( Rufus Wainwright) (03:34)
12. Court And Spark (Norah Jones) (03:16)
13. Nothing Can Be Done (Los Lobos) (05:02)
14. The Magdalene Laundries (Emmylou Harris) (04:25)
15. Woodstock (James Taylor) (04:39)
16. Big Yellow Taxi (La Marisoul, James Taylor, Chaka Khan & Brandi Carlile) (02:50)

Qobuz

Источник (релизер): Stephenten

An incredible array of artists and musicians honor one of the world's most revered artists, Joni Mitchell, on her 75th birthday on Joni 75: A Birthday Celebration. The all-star tribute salutes Mitchell as a boundary-breaking artist highlighting her songs throughout her career. Featured performers include Brandi Carlile; Glen Hansard; Emmylou Harris; Norah Jones; Chaka Khan; Diana Krall; Kris Kristofferson; Los Loboswith La Marisoul, Cesar Castro & Xochi Flores; Graham Nash; Seal; James Taylor; and Rufus Wainwright.



foobar2000 1.4 / Dynamic Range Meter 1.1.1
log date: 2019-03-08 19:08:31

--------------------------------------------------------------------------------
Analyzed: Brandi Carlile / Joni 75: A Joni Mitchell Birthday Celebration (1)
Chaka Khan / Joni 75: A Joni Mitchell Birthday Celebration (2)
Diana Krall / Joni 75: A Joni Mitchell Birthday Celebration (3)
Emmylou Harris / Joni 75: A Joni Mitchell Birthday Celebration (4)
Glen Hansard / Joni 75: A Joni Mitchell Birthday Celebration (5)
Graham Nash / Joni 75: A Joni Mitchell Birthday Celebration (6)
James Taylor / Joni 75: A Joni Mitchell Birthday Celebration (7-8)
Kris Kristofferson / Joni 75: A Joni Mitchell Birthday Celebration (9)
La Marisoul / Joni 75: A Joni Mitchell Birthday Celebration (10)
Los Lobos / Joni 75: A Joni Mitchell Birthday Celebration (11-12)
Norah Jones / Joni 75: A Joni Mitchell Birthday Celebration (13)
Rufus Wainwright / Joni 75: A Joni Mitchell Birthday Celebration (14-15)
Seal / Joni 75: A Joni Mitchell Birthday Celebration (16)
--------------------------------------------------------------------------------

DR Peak RMS Duration Track
--------------------------------------------------------------------------------
DR12 -0.59 dB -16.33 dB 5:50 10-Down To You
DR9 -0.20 dB -9.99 dB 4:43 02-Help Me
DR12 -0.46 dB -16.05 dB 7:05 03-Amelia
DR11 -0.22 dB -14.37 dB 4:25 14-The Magdalene Laundries
DR9 -0.20 dB -11.15 dB 6:35 05-Coyote
DR12 -0.20 dB -14.57 dB 3:30 08-Our House
DR13 -0.20 dB -15.16 dB 3:29 06-River
DR10 -0.20 dB -12.48 dB 4:39 15-Woodstock
DR10 -0.20 dB -13.21 dB 4:46 09-A Case Of You
DR10 -0.20 dB -11.30 dB 2:50 16-Big Yellow Taxi
DR8 -0.20 dB -9.98 dB 6:07 01-Dreamland
DR9 -0.20 dB -10.68 dB 5:02 13-Nothing Can Be Done
DR12 -0.21 dB -14.29 dB 3:17 12-Court And Spark
DR9 -0.20 dB -11.41 dB 3:46 04-All I Want
DR12 -0.20 dB -16.67 dB 3:34 11-Blue
DR10 -0.20 dB -13.59 dB 6:03 07-Both Sides Now
--------------------------------------------------------------------------------

Number of tracks: 16
Official DR value: DR10
Samplerate: 48000 Hz
Channels: 2
Bits per sample: 24
Bitrate: 1643 kbps
Codec: FLAC
================================================================================



Comments (3)


16 march 2019
woollies66   
0 
PR:XCityXXX GBXXX GBПостовХС
В
Л
Х

Thanx


14 march 2019
TLAVA   
0 
PR:XCityXXX GBXXX GBПостовХС
В
Л
Х

super


10 march 2019
Phantastych   
0 
PR:XCityXXX GBXXX GBПостовХС
В
Л
Х

Excellent, thanks



 

Please enable Javascript!
Пожалуйста включите Javascript, иначе данный и другие сайты могут работать не корректно! Узнать как включить Javascript можно на Google Support