Categories
Welcome to Music Torrent Tracker - Sound-Park  ι  JOIN US FOR FULL ACCESS  ι  Log In  ι  Forgot your password?

Youn Sun Nah - Immersion (Lossless, Hi Res 2019)

Jazz  Vocal jazz
 
Date: 9 march 2019
Added: StasOn11
Views: 1446
  • ARTIST: Youn Sun Nah
  • ALBUM / TITLE: Immersion
  • RELEASE YEAR / DATE: 2019
  • COUNTRY: South Korea (Seoul)
  • STYLE: Jazz, Vocal Jazz
  • LABEL: Arts Music
  • DURATION: 00:44:11
  • FILE FORMAT: FLAC, (tracks) 24 bits, 48 KHz
  • QUALITY: Lossless

  • RATING: 10 / 5    
  • VOTE:

  • DOWNLOAD: DOWNLOAD TORRENT
  • СИДЫ:

Torrent description



01. In My Heart (02:53)
02. The Wonder (03:05)
03. Isn't It a Pity (03:38)
04. Here Today (03:41)
05. Mystic River (02:47)
06. Sans toi (03:00)
07. Mercy Mercy Me (The Ecology) (03:22)
08. God's Gonna Cut You Down (02:58)
09. You Can't Hurry Love (03:57)
10. Asturias (03:28)
11. I'm Alright (01:45)
12. Invincible (03:35)
13. Hallelujah (06:02)

Highresaudio

Источник (релизер): Stephenten

Die magische Stimme aus Südkorea: Mit dem Album IMMERSION geht die koreanische Sängerin YOUN SUN NAH neue Wege und verbindet die Intensität des Gesangs mit der Ausdruckskraft von Jazz, Rock, Folk und dem Anspruch großer Songs.

IMMERSION ist ein stilistisch weit gefächertes Album, ein Eintauchen in viele Welten, von der andalusischen Klassik der ASTURIAS über die Motown-Unbeschwertheit à la YOU CAN'T HURRY LOVE und die Nachdenklichkeit von MARVIN GAYEs MERCY MERCY ME bis hin zu LEONARD COHENs profundem Pathos in HALLELUJAH. Nur verändert YOUN SUN NAH die Vorlagen so nachhaltig, dass die Lieder nicht nur neue Geschichten fernab der ursprünglichen Versionen erzählen, sondern sich in eigene Mysterien verwandeln. Hier kommt eine Stimme, die beim Hören fesselt. Eine Persönlichkeit, die ihre Mischung aus Ernst und Empathie in die Musik trägt, ohne damit gravitätisch zu werden. Ein Phänomen, dem der Produzent und Pianist Clément Ducol (Camille, Melodie Gardot) oder auch Musiker wie der Schlagzeuger und Cellist Pierre-François Dufour zum passenden, ebenso reduzierten wie pointierten Klanggewand verhelfen.

YOUN SUN NAH besitzt eine der ausdrucksstärksten und außergewöhnlichsten Stimmen des zeitgenössischen Jazz. Für ihre inzwischen neun veröffentlichten Alben erntete sie durchweg begeisterte Kritiken und eroberte die Jazzwelt im Sturm. Sie gewann eine Reihe von Preisen in Musikwettbewerben von Jazz-Festivals: der Beginn einer langen Folge von Auszeichnungen, deren Höhepunkte die Verleihung des Titels »Chevalier des Arts et des Lettres« durch das französische Kulturministerium sowie der Sejong-Kulturpreis der koreanischen Regierung waren. 2014 sang sie während der Abschlussfeierlichkeiten der Olympischen Winterspiele in Sotschi.

Youn Sun Nah, vocals, kalimba
Clément Ducol, piano, synthesizers, programming, drum machine, acoustic guitar, marimba
Pierre-François “Titi” Dufour, cello, electric cello, drums, percussion, drum machine, udu drum, body percussion, prepared piano
Laurent Vernerey, electric bass (on tracks 9, 13)


foobar2000 1.4 / Dynamic Range Meter 1.1.1
log date: 2019-03-08 18:20:00

--------------------------------------------------------------------------------
Analyzed: Youn Sun Nah / Immersion
--------------------------------------------------------------------------------

DR Peak RMS Duration Track
--------------------------------------------------------------------------------
DR6 -0.02 dB -9.64 dB 2:53 01-In My Heart
DR6 -0.01 dB -9.55 dB 3:05 02-The Wonder
DR10 -0.02 dB -12.25 dB 3:38 03-Isn't It a Pity
DR8 -0.02 dB -11.70 dB 3:42 04-Here Today
DR6 -0.01 dB -8.13 dB 2:48 05-Mystic River
DR7 -0.02 dB -10.71 dB 3:01 06-Sans toi
DR11 -0.03 dB -14.37 dB 3:23 07-Mercy Mercy Me (The Ecology)
DR6 -0.01 dB -7.98 dB 2:58 08-God's Gonna Cut You Down
DR10 -0.50 dB -13.05 dB 3:57 09-You Can't Hurry Love
DR7 -0.01 dB -10.09 dB 3:29 10-Asturias
DR10 -1.20 dB -13.86 dB 1:46 11-I'm Alright
DR7 -0.02 dB -10.46 dB 3:36 12-Invincible
DR8 -0.02 dB -10.66 dB 6:03 13-Hallelujah
--------------------------------------------------------------------------------

Number of tracks: 13
Official DR value: DR8
Samplerate: 48000 Hz
Channels: 2
Bits per sample: 24
Bitrate: 1560 kbps
Codec: FLAC
================================================================================



Comments (4)


14 march 2019
TLAVA   
0 
PR:XCityXXX GBXXX GBПостовХС
В
Л
Х

magnifique


12 march 2019
FETR75   
0 
PR:XCityXXX GBXXX GBПостовХС
В
Л
Х

Super!


9 march 2019
Bagdee   
+1 
PR:XCityXXX GBXXX GBПостовХС
В
Л
Х

Thank you


9 march 2019
ChaKuZaa   
+1 
PR:XCityXXX GBXXX GBПостовХС
В
Л
Х

Thank you so much



 
Please enable Javascript!
Пожалуйста включите Javascript, иначе данный и другие сайты могут работать не корректно! Узнать как включить Javascript можно на Google Support