Categories
Welcome to Music Torrent Tracker - Sound-Park  ι  JOIN US FOR FULL ACCESS  ι  Log In  ι  Forgot your password?

Linda Kvam - Between a Rock and a Hard Place (Lossless, Hi Res 2019)

Pop-Rock  Blues
 
Date: 9 march 2019
Added: StasOn11
Views: 1988
  • ARTIST: Linda Kvam
  • ALBUM / TITLE: Between a Rock and a Hard Place
  • RELEASE YEAR / DATE: 2019
  • COUNTRY: Norway
  • STYLE: Pop Rock, Blues
  • LABEL: © (C) 2019 FAJo Music
  • DURATION: 00:47:40
  • FILE FORMAT: FLAC, (tracks) 24 bits, 48 KHz
  • QUALITY: Lossless

  • RATING: 9.88 / 8    
  • VOTE:

  • DOWNLOAD: DOWNLOAD TORRENT
  • СИДЫ:

Torrent description



01. Between A Rock And A Hard Place (4:33)
02. I Want You (3:55)
03. Alibi (4:20)
04. Hand In Glove (4:25)
05. Sister (3:29)
06. Hallow (3:59)
07. Half Truths And Traces (3:07)
08. Another Story (3:36)
09. Not Tonight (4:02)
10. The Story Repeats Itself (4:12)
11. Love Me (3:42)
12. Run (4:20)

Qobuz

Источник (релизер): Stephenten

Singer and songwriter Linda Kvam releases her third album this summer; "Between a Rock and a Hard Place".
She is a famous face for most Norwegians with countless TV show appearances (including Beat for Beat and MGP) and collaborations with Frode Alnæs, Hanne Sørvaag, Stephen Ackles and Åge Sten Nilsen.



foobar2000 1.4 / Dynamic Range Meter 1.1.1
log date: 2019-03-09 07:07:38

--------------------------------------------------------------------------------
Analyzed: Linda Kvam / Between a Rock and a Hard Place
--------------------------------------------------------------------------------

DR Peak RMS Duration Track
--------------------------------------------------------------------------------
DR8 -0.26 dB -10.09 dB 4:34 01-Between a Rock and a Hard Place
DR8 -0.26 dB -9.67 dB 3:56 02-I Want You
DR8 -0.26 dB -10.67 dB 4:20 03-Alibi
DR9 -0.26 dB -11.77 dB 4:25 04-Hand in Glove
DR8 -0.26 dB -10.53 dB 3:29 05-Sister
DR8 -0.26 dB -10.19 dB 3:59 06-Hallow
DR7 -0.26 dB -8.93 dB 3:08 07-Half Truths and Traces
DR6 -0.26 dB -7.84 dB 3:36 08-Another Story
DR7 -0.26 dB -8.95 dB 4:02 09-Not Tonight
DR8 -0.26 dB -9.65 dB 4:13 10-The Story Repeats Itself
DR8 -0.26 dB -10.14 dB 3:43 11-Love Me
DR11 -0.26 dB -13.30 dB 4:21 12-Run
--------------------------------------------------------------------------------

Number of tracks: 12
Official DR value: DR8
Samplerate: 48000 Hz
Channels: 2
Bits per sample: 24
Bitrate: 1570 kbps
Codec: FLAC
================================================================================



Comments (7)


13 march 2019
aleox16   
0 
PR:XCityXXX GBXXX GBПостовХС
В
Л
Х

gracias


10 march 2019
Phantastych   
+1 
PR:XCityXXX GBXXX GBПостовХС
В
Л
Х

Very nice


10 march 2019
petrosa   
0 
PR:XCityXXX GBXXX GBПостовХС
В
Л
Х

thanks


10 march 2019
StasOn11   
0 
PR:XCityXXX GBXXX GBПостовХС
В
Л
Х

Citation:  yuriy75
спасибо за flac !!!прослушаю однозначно после mp3!благодарю за релиз!!!

Citation:  tcbr18vep
Благодарю

Спасибо за "Благодарность"!


10 march 2019
yuriy75   
+2 
PR:XCityXXX GBXXX GBПостовХС
В
Л
Х

спасибо за flac !!!прослушаю однозначно после mp3!благодарю за релиз!!!


9 march 2019
Bagdee   
+1 
PR:XCityXXX GBXXX GBПостовХС
В
Л
Х

Thank you


9 march 2019
tcbr18vep   
+2 
PR:XCityXXX GBXXX GBПостовХС
В
Л
Х

Благодарю



 
Please enable Javascript!
Пожалуйста включите Javascript, иначе данный и другие сайты могут работать не корректно! Узнать как включить Javascript можно на Google Support