Categories
Welcome to Music Torrent Tracker - Sound-Park  ι  JOIN US FOR FULL ACCESS  ι  Log In  ι  Forgot your password?

Sebastian Plano - Verve (Lossless, Hi Res 2019)

Classical  Contemporary / Modern  Instrumental  Ambient
 
Date: 9 march 2019
Added: StasOn11
Views: 913
  • ARTIST: Sebastian Plano
  • ALBUM / TITLE: Verve
  • RELEASE YEAR / DATE: 2019
  • COUNTRY: Argentina
  • STYLE: Modern Classical, Instrumental, Ambient
  • LABEL: Decca
  • DURATION: 00:52:44
  • FILE FORMAT: FLAC, (tracks) 24 bits, 44,1 KHz
  • QUALITY: Lossless

  • RATING: 10 / 7    
  • VOTE:

  • DOWNLOAD: DOWNLOAD TORRENT

Torrent description



01. Abeyance (03:55)
02. Honesty (02:18)
03. Verve (04:59)
04. Last Day Of May (03:59)
05. Dancing Waters (04:18)
06. Purples (07:52)
07. One Step Slower (06:00)
08. Éxta (02:22)
09. Extrema (04:38)
10. Volant (Bonus) (05:11)
11. Chiaroscuro (Bonus) (07:12)

Highresaudio

Источник (релизер): Stephenten

Born into a musical family in Argentina, Sebastian Plano is a classically-trained contemporary composer and multi-instrumentalist. Exploring his strong roots in folk music and tango, and enchanted by the resonance of electronic music, he began to interpret his influences with his own sounds at age 12. His music draws from a wide pool of influences. Indeed, it is influenced by much of classical music, but we also find similarities to some soundtrack composers, as well as certain musicians such as Ólafur Arnalds, Sigur Rós, Arvo Pärt, Nils Frahm and Max Richter.

Plano has gained international acclaim with albums 'Arrhythmical Part of Hearts' and 'Impetus', placing him as one of the pioneering artists combining classical and electronic elements.

Sebastian Plano, piano



foobar2000 1.4 / Dynamic Range Meter 1.1.1
log date: 2019-03-09 08:04:47

--------------------------------------------------------------------------------
Analyzed: Sebastian Plano / Verve
--------------------------------------------------------------------------------

DR Peak RMS Duration Track
--------------------------------------------------------------------------------
DR10 -0.70 dB -14.27 dB 3:59 01-Abeyance
DR15 -4.39 dB -23.60 dB 2:28 02-Honesty
DR6 -0.20 dB -10.73 dB 5:04 03-Verve
DR7 -0.70 dB -11.64 dB 4:03 04-Last Day Of May
DR11 -1.68 dB -16.84 dB 4:28 05-Dancing Waters
DR8 -0.70 dB -12.32 dB 7:59 06-Purples
DR8 -0.70 dB -12.67 dB 6:08 07-One Step Slower
DR9 -0.94 dB -14.71 dB 2:22 08-Éxta
DR10 -0.70 dB -14.64 dB 4:38 09-Extrema
DR8 -0.70 dB -12.65 dB 5:11 10-Volant
DR7 -0.70 dB -13.50 dB 7:13 11-Chiaroscuro
--------------------------------------------------------------------------------

Number of tracks: 11
Official DR value: DR9
Samplerate: 44100 Hz
Channels: 2
Bits per sample: 24
Bitrate: 1394 kbps
Codec: FLAC
================================================================================



Comments (3)


13 march 2019
edkarlos   
0 
PR:XCityXXX GBXXX GBПостовХС
В
Л
Х

Good Job .... Excellent ... Good Music for moments of calm and tranquility for the mind

Very Greatful


11 march 2019
asimov12   
0 
PR:XCityXXX GBXXX GBПостовХС
В
Л
Х

MUCHISIMAS GRACIAS. VOY A DISFRUTARLO.


9 march 2019
Bagdee   
0 
PR:XCityXXX GBXXX GBПостовХС
В
Л
Х

Thank you



 

Please enable Javascript!
Пожалуйста включите Javascript, иначе данный и другие сайты могут работать не корректно! Узнать как включить Javascript можно на Google Support