Categories
Welcome to Music Torrent Tracker - Sound-Park  ι  JOIN US FOR FULL ACCESS  ι  Log In  ι  Forgot your password?

Siril Malmedal Hauge - Uncharted Territory (Lossless, Hi Res 2019)

Vocal jazz  Jazz-pop
 
Date: 14 march 2019
Added: StasOn11
Views: 1007
  • ARTIST: Siril Malmedal Hauge
  • ALBUM / TITLE: Uncharted Territory
  • RELEASE YEAR / DATE: 2019
  • COUNTRY: Oslo, Norway
  • STYLE: Vocal Jazz, Jazz Pop
  • LABEL: Jazzland Recordings
  • DURATION: 00:29:54
  • FILE FORMAT: FLAC, (tracks) 24 bits, 48 KHz
  • QUALITY: Lossless

  • RATING: 9.8 / 5    
  • VOTE:

  • DOWNLOAD: DOWNLOAD TORRENT

Torrent description



01. Transfixed (3:57)
02. Before I Disappear (2:53)
03. Lonely Avenue (4:02)
04. Lark in the Sky (3:58)
05. Interlude (1:35)
06. Uncharted Territory (3:16)
07. I'll Write a Book (4:53)
08. All I Can Think Of (4:01)
09. Us (1:19)

Highresaudio

Источник (релизер): fiks22

Siril Malmedal Hauge's Jazzland debut, "Uncharted Territory" is a perfect blend of pop energy and accessibility with jazz, rock, Americana and singer-songwriter sensibilities, bursting with melodic freshness. Featuring Siril's beautiful, clear and expressive voice, the songs balance commercial exuberance with intelligence, both musically and lyrically. Themes both weighty and feather-light are given the appropriate treatments and settings. The moods are many, with variations of light and shade, but a sense of positivity glistens from every song. The instrumentation is broadly that of a classic rock ensemble, with relaxed but skilful playing and an old-school vibe to the recording process that eliminates the digitally quantized dehumanizing aspects of so many releases this past number of years. Consequently, the resulting album is an organic musical entity, with every song, every phrase, and every note as alive as it should be.
Siril's band features some of the most exciting new musical talent in Norway today: Martin Myhre Olsen (MMO Ensemble; Wako; Megalodon Collective) on saxophone, Torgeir Hovden Standal (The Jist) on guitar, Kjetil André Mulelid (Kjetil Mulelid Trio; Wako; Kjemilie; MMO Ensemble) on piano and organ, Martin Morland (Masåva) on bass, and Henrik Lødøen (Megalodon Collective; Rohey) on drums. Their playing is soulful, focussed and attentive, and a perfect antidote to corporate treadmill productions that are pumped out of the one-trick-pony machine that dominates the mainstream. "Uncharted Territory" is a perfect album to soundtrack the watch for signs of spring.

Siril Malmedal Hauge - vocals, mandolin
Martin Myhre Olsen - saxophones
Torgeir Hovden Standal - guitars
Kjetil Andre Mulelid - piano, organ
Martin Morland - bass
Henrik Lodoen - drums
Adrian Loseth Waade - violin
Isa Caroline Holmesland - viola
Kaja Fjellberg Pettersen - cello

Music and lyrics by Siril Malmedal Hauge.
Produced by Siril Malmedal Hauge.



foobar2000 1.4.2 / Dynamic Range Meter 1.1.1
log date: 2019-03-14 03:24:34

--------------------------------------------------------------------------------
Analyzed: Siril Malmedal Hauge / Uncharted Territory
--------------------------------------------------------------------------------

DR Peak RMS Duration Track
--------------------------------------------------------------------------------
DR10 -0.29 dB -11.18 dB 3:57 01-Transfixed
DR10 -0.28 dB -11.30 dB 2:53 02-Before I Disappear
DR10 -0.30 dB -11.77 dB 4:02 03-Lonely Avenue
DR10 -0.28 dB -10.89 dB 3:58 04-Lark in the Sky
DR10 -0.55 dB -16.66 dB 1:35 05-Interlude
DR10 -0.29 dB -11.08 dB 3:16 06-Uncharted Territory
DR9 -0.24 dB -10.13 dB 4:53 07-I'll Write a Book
DR10 -0.30 dB -13.35 dB 4:01 08-All I Can Think Of
DR11 -1.82 dB -17.37 dB 1:19 09-Us
--------------------------------------------------------------------------------

Number of tracks: 9
Official DR value: DR10

Samplerate: 48000 Hz
Channels: 2
Bits per sample: 24
Bitrate: 1350 kbps
Codec: FLAC
================================================================================



Comments (1)


14 march 2019
Bagdee   
0 
PR:XCityXXX GBXXX GBПостовХС
В
Л
Х

Thank you, StasOn11



 

Please enable Javascript!
Пожалуйста включите Javascript, иначе данный и другие сайты могут работать не корректно! Узнать как включить Javascript можно на Google Support