Categories
Welcome to Music Torrent Tracker - Sound-Park  ι  JOIN US FOR FULL ACCESS  ι  Log In  ι  Forgot your password?

Joanne Shaw Taylor - Reckless Heart (Lossless, Hi Res 2019)

Blues-rock
 
Date: 17 march 2019
Added: StasOn11
Views: 2191
  • ARTIST: Joanne Shaw Taylor
  • ALBUM / TITLE: Reckless Heart
  • RELEASE YEAR / DATE: 2019
  • COUNTRY: United Kingdom
  • STYLE: Blues Rock
  • LABEL: Silvertone
  • DURATION: 00:46:47
  • FILE FORMAT: FLAC, (tracks) 24 bits, 88,2 KHz
  • QUALITY: Lossless
  • Site: joanneshawtaylor.com

  • RATING: 9.89 / 9    
  • VOTE:

  • DOWNLOAD: DOWNLOAD TORRENT

Torrent description



01. In the Mood (03:46)
02. All My Love (03:38)
03. The Best Thing (04:52)
04. Bad Love (04:07)
05. Creepin' (03:40)
06. I've Been Loving You Too Long (06:37)
07. Reckless Heart (04:28)
08. Break My Heart Anyway (03:22)
09. New 89 (03:47)
10. Jake's Boogie (03:02)
11. I'm Only Lonely (05:27)

Highresaudio

Источник (релизер): Stephenten

Having famous fans such as Joe Bonnamassaand Glen Hughes and being described by Jools Holland as a dazzling talent, it’s hard to deny that Joanne Shaw Taylor has certainly mastered her craft and become one of the worlds most formidable guitar players. Having signed to Sony/Silvertoneat the beginning of 2018, Joanne is back for her 6thalbum, ‘Reckless Heart’ which was recorded during the summer of 2018 at Rust Belt Studios in Michigan.

Joanne is thrilled to be releasing her new album: "I decided for this album I wanted to go further back to my roots. A large part of that was my decision to work with Al Sutton. Al’s been a good friend of mine since I moved to Detroit in 2008 and I’ve always been a big fan of his work with the Detroit Cobras, ThornettaDavis and most recently Greta Van Fleet. Working together was something we’d always discussed and in particular that he’d like to hear me do something more raw and live. The other main reason for recording in Detroit was the calibre of musicians in that town, and we were lucky enough to score some of the best in Ron Otis, James Simonson, Phil Hale and Chris Codish. I couldn’t be happier with it; we managed to incorporate my love of soul, blues and rock into the album and I think it’s probably my most honest work to date.


foobar2000 1.4 / Dynamic Range Meter 1.1.1
log date: 2019-03-15 06:29:34

--------------------------------------------------------------------------------
Analyzed: Joanne Shaw Taylor / Reckless Heart
--------------------------------------------------------------------------------

DR Peak RMS Duration Track
--------------------------------------------------------------------------------
DR6 -0.11 dB -7.14 dB 3:45 01-In the Mood
DR6 -0.09 dB -8.58 dB 3:38 02-All My Love
DR7 -0.13 dB -9.28 dB 4:52 03-The Best Thing
DR6 -0.10 dB -7.14 dB 4:07 04-Bad Love
DR6 -0.18 dB -7.87 dB 3:41 05-Creepin'
DR6 -0.18 dB -8.97 dB 6:37 06-I've Been Loving You Too Long
DR7 -0.19 dB -8.92 dB 4:28 07-Reckless Heart
DR8 -0.15 dB -10.08 dB 3:23 08-Break My Heart Anyway
DR7 -0.18 dB -8.62 dB 3:48 09-New 89
DR10 -0.20 dB -15.58 dB 3:03 10-Jake's Boogie
DR8 -0.17 dB -10.97 dB 5:28 11-I'm Only Lonely
--------------------------------------------------------------------------------

Number of tracks: 11
Official DR value: DR7
Samplerate: 88200 Hz
Channels: 2
Bits per sample: 24
Bitrate: 2696 kbps
Codec: FLAC
================================================================================



Comments (7)


20 march 2019
FETR75   
0 
PR:XCityXXX GBXXX GBПостовХС
В
Л
Х

Super!


19 march 2019
StasOn11   
+1 
PR:XCityXXX GBXXX GBПостовХС
В
Л
Х

Citation:  tcbr18vep
Благодарю

Спасибо за "Благодарность"!


19 march 2019
tcbr18vep   
+1 
PR:XCityXXX GBXXX GBПостовХС
В
Л
Х

Благодарю


18 march 2019
3Dscrewer   
+1 
PR:XCityXXX GBXXX GBПостовХС
В
Л
Х

TNX


17 march 2019
aleox16   
+1 
PR:XCityXXX GBXXX GBПостовХС
В
Л
Х

gracias


17 march 2019
METALSHOP   
+1 
PR:XCityXXX GBXXX GBПостовХС
В
Л
Х

THANKS.


17 march 2019
Bagdee   
+1 
PR:XCityXXX GBXXX GBПостовХС
В
Л
Х

Thank you



 

Similar albums

+ More
Please enable Javascript!
Пожалуйста включите Javascript, иначе данный и другие сайты могут работать не корректно! Узнать как включить Javascript можно на Google Support