Categories
Welcome to Music Torrent Tracker - Sound-Park  ι  JOIN US FOR FULL ACCESS  ι  Log In  ι  Forgot your password?

Snarky Puppy - Immigrance (Lossless, Hi Res 2019)

Jazz  Fusion  Funk
 
Date: 17 march 2019
Added: StasOn11
Views: 2089
  • ARTIST: Snarky Puppy
  • ALBUM / TITLE: Immigrance
  • RELEASE YEAR / DATE: 2019
  • COUNTRY: United States
  • STYLE: Jazz-Fusion, Funk
  • LABEL: ℗ 2019 GroundUP Music
  • DURATION: 00:54:22
  • FILE FORMAT: FLAC, (tracks) 24 bits, 96 KHz
  • QUALITY: Lossless

  • RATING: 10 / 5    
  • VOTE:

  • DOWNLOAD: DOWNLOAD TORRENT
  • СИДЫ:

Torrent description



1. Chonks (08:32)
2. Bigly Strictness (07:37)
3. Coven (06:38)
4. Bling Bling (05:55)
5. Xavi (09:31)
6. While We're Young (02:41)
7. Bad Kids to the Back (05:45)
8. Even Us (07:43)

Qobuz

Источник (релизер): Stephenten

Новая пластинка «Immigrance» от Snarky Puppy. Фьюжн-группа из Нью-Йорка, сформированная басистом, композитором и продюсером Майклом Лигом в 2004 году...


foobar2000 1.4 / Dynamic Range Meter 1.1.1
log date: 2019-03-15 22:09:11

--------------------------------------------------------------------------------
Analyzed: Snarky Puppy / Immigrance
--------------------------------------------------------------------------------

DR Peak RMS Duration Track
--------------------------------------------------------------------------------
DR7 -0.70 dB -9.98 dB 8:32 01-Chonks
DR7 -0.70 dB -10.06 dB 7:37 02-Bigly Strictness
DR9 -0.70 dB -11.55 dB 6:38 03-Coven
DR7 -0.70 dB -10.36 dB 5:55 04-Bling Bling
DR7 -0.70 dB -9.52 dB 9:31 05-Xavi
DR10 -0.70 dB -12.75 dB 2:42 06-While We're Young
DR8 -0.70 dB -10.82 dB 5:46 07-Bad Kids To The Back
DR8 -0.70 dB -11.69 dB 7:44 08-Even Us
--------------------------------------------------------------------------------

Number of tracks: 8
Official DR value: DR8
Samplerate: 96000 Hz
Channels: 2
Bits per sample: 24
Bitrate: 2538 kbps
Codec: FLAC
================================================================================



Comments (12)


22 march 2019
одя   
0 
PR:XCityXXX GBXXX GBПостовХС
В
Л
Х

Спасибо за новое ОТКРЫТИЕ.


21 march 2019
Amado777   
0 
PR:XCityXXX GBXXX GBПостовХС
В
Л
Х

Fenómenos


20 march 2019
FREDZAPPA   
0 
PR:XCityXXX GBXXX GBПостовХС
В
Л
Х

As always, excellent jazz´n´funk


19 march 2019
StasOn11   
+1 
PR:XCityXXX GBXXX GBПостовХС
В
Л
Х

Citation:  tcbr18vep
Благодарю

Спасибо за "Благодарность"!


19 march 2019
tcbr18vep   
+2 
PR:XCityXXX GBXXX GBПостовХС
В
Л
Х

Благодарю


18 march 2019
frankitimote   
+1 
PR:XCityXXX GBXXX GBПостовХС
В
Л
Х

Thanks..!


17 march 2019
aleox16   
+1 
PR:XCityXXX GBXXX GBПостовХС
В
Л
Х

gracias


17 march 2019
StasOn11   
+1 
PR:XCityXXX GBXXX GBПостовХС
В
Л
Х

Citation:  Снумик
Спасибо. Хороший альбом.

Спасибо за "Спасибо"!


17 march 2019
Снумик   
+2 
PR:XCityXXX GBXXX GBПостовХС
В
Л
Х

Спасибо. Хороший альбом.


17 march 2019
miok   
+1 
PR:XCityXXX GBXXX GBПостовХС
В
Л
Х

Thank you very much


+ More
 

Similar albums

+ More
Please enable Javascript!
Пожалуйста включите Javascript, иначе данный и другие сайты могут работать не корректно! Узнать как включить Javascript можно на Google Support