Categories
Welcome to Music Torrent Tracker - Sound-Park  ι  JOIN US FOR FULL ACCESS  ι  Log In  ι  Forgot your password?

Jordan Officer - Three Rivers (Lossless, Hi Res 2018)

Blues-rock
 
Date: 20 march 2019
Added: StasOn11
Views: 1300
  • ARTIST: Jordan Officer
  • ALBUM / TITLE: Three Rivers
  • RELEASE YEAR / DATE: 2018
  • COUNTRY: Canada (Montreal)
  • STYLE: Blues Rock
  • LABEL: © Spectra Musique
  • DURATION: 00:43:50
  • FILE FORMAT: FLAC, (tracks) 24 bits, 96 KHz
  • QUALITY: Lossless
  • Site: jordanofficer.com

  • RATING: 10 / 3    
  • VOTE:

  • DOWNLOAD: DOWNLOAD TORRENT

Torrent description



01. Your Body's My Home (Officer) - 4:23
02. Young Love (Officer-Lipscombe) - 3:39
03. One Handed Push-Ups (Officer) - 3:22
04. Felt So Good (Officer-Secours-Hellman) - 4:06
05. Dream of You and Me (Officer-Lipscombe) - 3:58
06. Driving Back from Three Rivers (Officer) - 4:40
07. Where Has This Come From (Officer) - 3:57
08. Just to Be with You (Officer) - 3:11
09. Found It All (Officer) - 5:01
10. He's Got It All (Officer) - 4:43
11. Buck Jumping in New Orleans (Officer) - 2:50

Qobuz

Источник (релизер): fiks22

Jordan Officer is mostly known as a jazz guitar sensation and co-founding member of The Susan Arioli Band. He has received as much praise for his technique as he has for his tender expressive and interpretive abilities. On this disc he blends blues, jazz, country and gospel seamlessly into one flowing personal story. He showcased this album at this year’s Montreal Jazz Festival (a/k/a Festival International de Jazz de Montreal). A true homecoming as his aforementioned original band was discovered at a local outdoor show in 1998, then being offered the opening slot for Ray Charles at that year’s Jazz Fest. Now he was back there, 20 years later, the returning native son to debut his fourth solo album produced by Charley Drayton, drummer for Keith Richards, the Australian band Divinyls (“I Touch Myself”) and on the B-52’s hit “Love Shack”.
All these songs were composed during Jordan’s travels along the blues trail of the South. He felt that by visiting the places where the genre was cultivated he could connect with the music. He sounds vocally like Michael Franks or at times like J.J. Cale yet his soft spoken word style is all his own. He lets the guitar and violin leads do the loud talking most of the time. On the pitch perfect opener “Your Body’s My Home” his lyrics split the difference between objectification and unlimited devotion. She is his home but the physical manifestation is the necessary result of this and is cleverly intellectualized.
He plays all kinds of solos throughout the disc like double-stop leads, violin hoe downs, and soaring single-note alternating picking that spark runs of fluidity not seen on many blues albums. He is simultaneously reminiscent of vintage Buddy Guy and Charlie Christian. On the swinging “One Handed Push-Ups” he sings scat along with his blazing violin riffs. He boastfully tells the listener “I’m Jordan Officer and I’ll play the blues for you…and we’ll all be friends before the night is through”. He knows his audience and has the right to make the boast. This cat can play! He likes to spin tales too. “Driving Back from Three Rivers” is the titular song which he bathes in comfy tremolo aurally signifying the longing of a musician to get back home.
He gets nice and wistful on an 8 bar “Just to be with You” which uses the same chords as Tampa Red’s “It Hurts Me Too” evoking a similar emotion. On “He Got It All” he gets bitter when a rival man enters the bar with “A soft gentle swagger and looks to spare” that captures the eye of his beloved. This is the familiar story of many old blues tunes about straying women and the pain and suffering of the cuckold and what it drives him to do. This is the subject matter he lusts after but he’s still a bit awkward in the genre as he does not seem the seasoned pugilist. But who knows? Maybe he’s got himself a trainer by now. “Man you won’t know what hit you, as you go flying out that door.”
The final track is an instrumental “Buck Jumping in New Orleans”. It has numerous key-change modulations, one for each solo. He alternates between guitar and violin as he bears down the final stretch toward the checkered flag. All this over a Bo Diddley beat that veers off into the jump swing jazz he’s more familiar with to end on a very high note.

Jordan Officer - vocals, guitar (electric, acoustic and lap), violin (#3,8,11)
Zev Katz - bass (electric and upright), vocals (#3)
Charley Drayton - drums, percussion, vocals (#3,4)

Recorded at Cowboy Technical, Brooklyn, NY.



foobar2000 1.4.2 / Dynamic Range Meter 1.1.1
log date: 2019-03-19 00:05:07

--------------------------------------------------------------------------------
Analyzed: Jordan Officer / Three Rivers
--------------------------------------------------------------------------------

DR Peak RMS Duration Track
--------------------------------------------------------------------------------
DR6 -0.53 dB -7.74 dB 4:23 01-Your Body's My Home
DR7 -0.53 dB -8.91 dB 3:39 02-Young Love
DR6 -0.53 dB -7.61 dB 3:22 03-One Handed Push-Ups
DR7 -0.53 dB -9.43 dB 4:06 04-Felt So Good
DR7 -0.53 dB -8.56 dB 3:58 05-Dream of You and Me
DR7 -0.53 dB -9.40 dB 4:40 06-Driving Back from Three Rivers
DR8 -0.53 dB -10.62 dB 3:57 07-Where Has This Come From
DR9 -0.53 dB -12.98 dB 3:11 08-Just to Be with You
DR7 -0.53 dB -9.26 dB 5:01 09-Found It All
DR8 -0.53 dB -10.76 dB 4:43 10-He's Got It All
DR7 -0.53 dB -9.04 dB 2:50 11-Buck Jumping in New Orleans
--------------------------------------------------------------------------------

Number of tracks: 11
Official DR value: DR7

Samplerate: 96000 Hz
Channels: 2
Bits per sample: 24
Bitrate: 2822 kbps
Codec: FLAC
================================================================================



Comments (3)


21 march 2019
aleox16   
0 
PR:XCityXXX GBXXX GBПостовХС
В
Л
Х

gracias


21 march 2019
Phantastych   
0 
PR:XCityXXX GBXXX GBПостовХС
В
Л
Х

Many thanks


21 march 2019
Bagdee   
0 
PR:XCityXXX GBXXX GBПостовХС
В
Л
Х

Thank you



 
Please enable Javascript!
Пожалуйста включите Javascript, иначе данный и другие сайты могут работать не корректно! Узнать как включить Javascript можно на Google Support