Categories
Welcome to Music Torrent Tracker - Sound-Park  ι  JOIN US FOR FULL ACCESS  ι  Log In  ι  Forgot your password?

a-ha - Time And Again: The Ultimate a-ha (Lossless, Hi Res 2016)

Synthpop
 
Date: 20 march 2019
Added: StasOn11
Views: 1097
  • ARTIST: a-ha
  • ALBUM / TITLE: Time And Again: The Ultimate a-ha
  • RELEASE YEAR / DATE: 2016
  • COUNTRY: Norway
  • STYLE: Synthpop
  • LABEL: Rhino / Warner Bros.
  • DURATION: 02:37:54
  • FILE FORMAT: FLAC, (tracks) 24 bits, 44,1 KHz
  • QUALITY: Lossless
  • Site: a-ha.com

  • RATING: 10 / 10    
  • VOTE:

  • DOWNLOAD: DOWNLOAD TORRENT
  • СИДЫ:

Torrent description



1. Take On Me 03:48
2. The Sun Always Shines On TV 05:07
3. Hunting High And Low (7 Remix) 03:47
4. I’ve Been Losing You 04:24
5. Cry Wolf 04:07
6. Manhattan Skyline 04:48
7. The Living Daylights 04:15
8. Stay On These Roads 04:48
9. You Are The One (7 Remix) 03:46
10. Crying In The Rain 04:24
11. Move To Memphis (Single Version) 04:16
12. Dark Is The Night For All 03:46
13. Summer Moved On 04:38
14. Forever Not Yours 04:04
15. Lifelines 04:16
16. Celice 03:40
17. Analogue (All I Want) 03:49
18. Foot Of The Mountain 03:57
19. Under The Makeup 03:22
20. Take On Me (Kygo Remix) 03:46
21. The Sun Always Shines On TV (Future Funk Squad’s ‘Radiant 4K’ Remix) 05:38
22. Cry Wolf (Jellybean Mix) 05:14
23. Touchy! (House Mix) 05:22
24. You Are The One (Dub Mix Edit) 05:21
25. The Blood That Moves The Body (Three-Time Gun Mix) 05:10

MORE


Qobuz

Источник (релизер): gyji58
Norwegian pop trio A-ha has had their catalog revamped and repackaged a number of times since their inception in the 1980s, but 2016's Time and Again: The Ultimate A-ha brings their canon of hits up to date with the inclusion of material from each of their ten studio albums. The first disc of this set is generally concerned with their hits, beginning, appropriately, with the sunny synths of "Take on Me" and winding chronologically through the years to the sweeping orchestral ballad "Under the Makeup" from their 2015 LP Cast in Steel. The expected tracks like "Touchy!," "The Living Daylights," and their lush cover of the Everly Brothers' "Crying in the Rain" are all included alongside later-era cuts like 2000's "Summer Moved On," which was a number one hit in their home country. The second disc in the set is dedicated entirely to alternate mixes and remixes of their hits, some of which hold some historical value like Jellybean's previously unreleased 1986 remix of "Cry Wolf" and Justin Strauss' rare dub mix of "You Are the One." For the most part, though, the offerings from this disc seem a bit superfluous and the collection might have been better represented by adding some of the previously unreleased material that was included on their 2015 deluxe reissues. Still, of A-ha's anthology packages, this is easily the most career-spanning. ~ Timothy Monger


foobar2000 1.3.3 (cdpos.biz) / Dynamic Range Meter 1.1.1
log date: 2019-03-17 12:07:18

--------------------------------------------------------------------------------
Analyzed: a-ha / Time And Again: The Ultimate a-ha (Remastered)
--------------------------------------------------------------------------------

DR Peak RMS Duration Track
--------------------------------------------------------------------------------
DR9 -0.21 dB -11.41 dB 3:48 01-Take On Me
DR8 -0.15 dB -11.33 dB 5:07 02-The Sun Always Shines On TV
DR8 -0.15 dB -11.33 dB 3:48 03-Hunting High And Low (7 Remix)
DR8 -0.08 dB -9.84 dB 4:24 04-I've Been Losing You
DR9 -0.14 dB -10.88 dB 4:06 05-Cry Wolf
DR9 -0.14 dB -12.05 dB 4:48 06-Manhattan Skyline
DR10 -0.05 dB -12.74 dB 4:14 07-The Living Daylights
DR9 -0.13 dB -12.19 dB 4:47 08-Stay On These Roads
DR10 -0.18 dB -12.35 dB 3:49 09-You Are The One (7 Remix)
DR8 -0.10 dB -10.87 dB 4:21 10-Crying In The Rain
DR8 -0.09 dB -9.64 dB 4:18 11-Move To Memphis (Single Version)
DR9 -0.22 dB -11.99 dB 3:44 12-Dark Is The Night For All
DR7 -0.74 dB -9.59 dB 4:37 13-Summer Moved On
DR8 -0.89 dB -10.66 dB 4:04 14-Forever Not Yours
DR7 -0.83 dB -9.03 dB 4:15 15-Lifelines
DR7 0.00 dB -9.19 dB 3:40 16-Celice
DR7 -0.14 dB -8.58 dB 3:49 17-Analogue (All I Want)
DR6 -1.15 dB -7.59 dB 3:57 18-Foot Of The Mountain
DR5 -0.91 dB -8.03 dB 3:22 19-Under The Makeup
DR7 -1.02 dB -10.77 dB 3:46 20-Take On Me (Kygo Remix)
DR9 -0.02 dB -10.82 dB 5:37 21-The Sun Always Shines On TV (Future Funk Squad's 'Radiant 4K' Remix)
DR9 -0.24 dB -11.27 dB 5:15 22-Cry Wolf (Jellybean Mix)
DR9 -0.17 dB -10.79 dB 5:22 23-Touchy! (House Mix)
DR9 -0.12 dB -11.04 dB 5:21 24-You Are The One (Dub Mix Edit)
DR9 -0.11 dB -11.33 dB 5:11 25-The Blood That Moves The Body (Three-Time Gun Mix)
DR8 -0.71 dB -10.32 dB 6:00 26-Summer Moved On (Remix)
DR7 -0.37 dB -8.72 dB 4:07 27-Minor Earth Major Sky (Black Dog Mix)
DR7 -0.27 dB -9.43 dB 5:19 28-Velvet (New York Mix)
DR7 -0.55 dB -10.09 dB 4:53 29-Lifelines (Boogieman Remix)
DR5 -1.37 dB -8.45 dB 4:51 30-Did Anyone Approach You? (Reamped)
DR7 -0.13 dB -8.81 dB 3:58 31-Celice (Mauracher Remix)
DR7 -0.16 dB -8.80 dB 4:09 32-Analogue (CG's Electrosphere Edit)
DR9 -0.19 dB -11.31 dB 5:49 33-Cosy Prisons (Aural Float Remix)
DR6 -1.21 dB -9.03 dB 4:49 34-Foot Of The Mountain (Erik Llungren Remix)
DR6 -0.53 dB -8.80 dB 4:29 35-Butterfly, Butterfly (The Last Hurrah) [Steve Osborne Version]
--------------------------------------------------------------------------------

Number of tracks: 35
Official DR value: DR8

Samplerate: 44100 Hz
Channels: 2
Bits per sample: 24
Bitrate: 1661 kbps
Codec: FLAC
================================================================================



Comments (5)


24 march 2019
woollies66   
0 
PR:XCityXXX GBXXX GBПостовХС
В
Л
Х

Thanx


21 march 2019
Phantastych   
+1 
PR:XCityXXX GBXXX GBПостовХС
В
Л
Х

Good stuff, thanks


21 march 2019
Bagdee   
+1 
PR:XCityXXX GBXXX GBПостовХС
В
Л
Х

Thank you, StasOn11


20 march 2019
StasOn11   
+1 
PR:XCityXXX GBXXX GBПостовХС
В
Л
Х

Citation:  YRKAN68
Спасибо

Благодарю за "Спасибо"!


20 march 2019
YRKAN68   
+2 
PR:XCityXXX GBXXX GBПостовХС
В
Л
Х

Спасибо



 

Similar albums

+ More
  • a-ha - Time And Again: The Ultimate a-ha (Lossless, Hi Res 2016)
  • Download a-ha - Time And Again: The Ultimate a-ha (Lossless, Hi Res 2016) - free music torrent.

    Download a-ha - Time And Again: The Ultimate a-ha (Lossless, Hi Res 2016) for free in Lossless quality.

    You can download the torrent file on the top of the page
.

    Look for more music a-ha


Please enable Javascript!
Пожалуйста включите Javascript, иначе данный и другие сайты могут работать не корректно! Узнать как включить Javascript можно на Google Support