Categories
Welcome to Music Torrent Tracker - Sound-Park  ι  JOIN US FOR FULL ACCESS  ι  Log In  ι  Forgot your password?

Vanderson - Return to Consciousness (Lossless, Hi Res 2018)

Downtempo  Psychill
 
Date: 20 march 2019
Added: StasOn11
Views: 1587
  • ARTIST: Vanderson
  • ALBUM / TITLE: Return to Consciousness
  • RELEASE YEAR / DATE: 2018
  • COUNTRY: Gdańsk, Poland
  • STYLE: Downtempo, Psychill, Electronic
  • LABEL: Independent
  • DURATION: 01:03:04
  • FILE FORMAT: FLAC, (tracks) 24 bits, 44,1 KHz
  • QUALITY: Lossless

  • RATING: 10 / 10    
  • VOTE:

  • DOWNLOAD: DOWNLOAD TORRENT
  • СИДЫ:

Torrent description



01. Tears Of God - 09:28
02. Vibes Of Nature - 05:56
03. Angels Of Red Sun - 08:13
04. Everlasting Dream - 08:27
05. Saved By The Light - 07:53
06. Passage To Eternity - 07:30
07. Surreal Fantasy - 08:51
08. Whispers Of The Promised Land - 06:42

Вandcamp

Источник (релизер): wlad3972


foobar2000 1.3.19 / Замер динамического диапазона (DR) 1.1.1
Дата отчёта: 2019-03-17 20:58:38

--------------------------------------------------------------------------------
Анализ: Vanderson / Return to Consciousness
--------------------------------------------------------------------------------

DR Пики RMS Продолжительность трека
--------------------------------------------------------------------------------
DR12 0.00 дБ -14.22 дБ 9:29 01-Tears Of God
DR13 0.00 дБ -14.70 дБ 5:57 02-Vibes Of Nature
DR9 0.00 дБ -11.05 дБ 8:13 03-Angels Of Red Sun
DR10 0.00 дБ -11.84 дБ 8:27 04-Everlasting Dream
DR10 0.00 дБ -12.15 дБ 7:54 05-Saved By The Light
DR11 -0.19 дБ -14.73 дБ 7:30 06-Passage To Eternity
DR12 -0.26 дБ -15.88 дБ 8:52 07-Surreal Fantasy
DR9 0.00 дБ -10.76 дБ 6:43 08-Whispers Of The Promised Land
--------------------------------------------------------------------------------

Количество треков: 8
Реальные значения DR: DR11

Частота: 44100 Гц
Каналов: 2
Разрядность: 24
Битрейт: 1583 кбит/с
Кодек: FLAC
================================================================================



Comments (4)


22 march 2019
HATRIK   
+1 
PR:XCityXXX GBXXX GBПостовХС
В
Л
Х

ДЯКУЮ!!!


21 march 2019
StasOn11   
+2 
PR:XCityXXX GBXXX GBПостовХС
В
Л
Х

Citation:  Rocco_Siffredi
Psychill тоже присутствует

+ Psychill


21 march 2019
Rocco_Siffredi   
+2 
PR:XCityXXX GBXXX GBПостовХС
В
Л
Х

Psychill тоже присутствует


21 march 2019
Bagdee   
+1 
PR:XCityXXX GBXXX GBПостовХС
В
Л
Х

Thank you



 

Similar albums

+ More
Please enable Javascript!
Пожалуйста включите Javascript, иначе данный и другие сайты могут работать не корректно! Узнать как включить Javascript можно на Google Support