Categories
Welcome to Music Torrent Tracker - Sound-Park  ι  JOIN US FOR FULL ACCESS  ι  Log In  ι  Forgot your password?

Stein-Erik Olsen & Egil Haugland - Paris Recital: Music for Two Guitars (Lossless, Hi Res 2019)

Classical
 
Stein-Erik Olsen & Egil Haugland - Paris Recital: Music for Two Guitars (Lossless, Hi Res 2019)
Stein-Erik Olsen & Egil Haugland - Paris Recital: Music for Two Guitars (Lossless, Hi Res 2019)
Date: 4 april 2019
Added: StasOn11
Views: 1006
  • ARTIST: Stein-Erik Olsen & Egil Haugland
  • ALBUM / TITLE: Paris Recital: Music for Two Guitars
  • RELEASE YEAR / DATE: 2019
  • STYLE: Classical
  • LABEL: Simax - PSC1361
  • DURATION: 00:55:31
  • FILE FORMAT: FLAC, (tracks) 24 bits, 96 KHz
  • QUALITY: Lossless

  • RATING: 10 / 7    
  • VOTE:

  • DOWNLOAD: DOWNLOAD TORRENT

Torrent description



01. Petit, P: Toccata 5:45
02-04. Rodrigo: Tonadilla for two guitars 12:14
05-08. Jolivet: Sérénade pour deux guitares 12:31
09-10. Castelnuovo-Tedesco: Prélude et Fugue No. 4, en Mi majeur 4:43
11-13. Castelnuovo-Tedesco: Sonatina Canonica Op. 196 9:55
14. Petit, P: Tarentelle 6:20

Prestomusic

Источник (релизер): ipokemongo


foobar2000 1.4.2 / Dynamic Range Meter 1.1.1
log date: 2019-04-04 10:34:41

--------------------------------------------------------------------------------
Analyzed: Stein-Erik Olsen & Egil Haugland / Paris Recital
--------------------------------------------------------------------------------

DR Peak RMS Duration Track
--------------------------------------------------------------------------------
DR15 -2.00 dB -20.71 dB 5:46 01-Toccata
DR12 -0.07 dB -16.39 dB 2:43 02-Tonadilla: I. Allegro ma non troppo
DR14 -2.99 dB -21.51 dB 5:23 03-Tonadilla: II. Minueto Pomposa: Andante
DR15 -2.42 dB -21.17 dB 4:08 04-Tonadilla: III. Allegro vivace
DR13 -7.43 dB -24.91 dB 3:13 05-Sérénade pour deux Guitares: I. Praeludio e Canzona
DR13 -0.06 dB -16.95 dB 3:05 06-Sérénade pour deux Guitares: II. Allegro trépidante
DR15 -7.25 dB -26.73 dB 3:22 07-Sérénade pour deux Guitares: III. Andante malinconico
DR15 -0.10 dB -18.60 dB 2:52 08-Sérénade pour deux Guitares: IV. Con allegria
DR13 -5.93 dB -22.56 dB 2:40 09-Prélude et Fugue No. 4, en Mi majeur: Prélude
DR13 -4.95 dB -21.89 dB 2:03 10-Prélude et Fugue No. 4, en Mi majeur: Fugue
DR12 -6.10 dB -21.17 dB 3:18 11-Sonatina Canonica, Op. 196: I. Mosso, grazioso e leggero
DR14 -4.37 dB -23.32 dB 3:49 12-Sonatina Canonica, Op. 196: II. Tempo di Sicilianae (Andantino)
DR13 -0.09 dB -21.63 dB 2:48 13-Sonatina Canonica, Op. 196: III. Fandango en rondeau (Ritmico e deciso)
DR17 -0.05 dB -20.37 dB 6:21 14-Tarentelle
--------------------------------------------------------------------------------

Number of tracks: 14
Official DR value: DR14

Samplerate: 96000 Hz
Channels: 2
Bits per sample: 24
Bitrate: 2369 kbps
Codec: FLAC
================================================================================



Comments (7)


14 april 2019
Hykfal   
0 
PR:XCityXXX GBXXX GBПостовХС
В
Л
Х

thanks


9 april 2019
sorun2020   
0 
PR:XCityXXX GBXXX GBПостовХС
В
Л
Х

Thank you


6 april 2019
rotihellas   
0 
PR:XCityXXX GBXXX GBПостовХС
В
Л
Х

Thanks!!


6 april 2019
patatita2   
0 
PR:XCityXXX GBXXX GBПостовХС
В
Л
Х

Muchas gracias!!!


6 april 2019
woollies66   
0 
PR:XCityXXX GBXXX GBПостовХС
В
Л
Х

Thanx


4 april 2019
monsergas123   
+1 
PR:XCityXXX GBXXX GBПостовХС
В
Л
Х

MUchas gracias!!


4 april 2019
Bagdee   
+1 
PR:XCityXXX GBXXX GBПостовХС
В
Л
Х

Thank you



 

Similar albums

+ More
Please enable Javascript!
Пожалуйста включите Javascript, иначе данный и другие сайты могут работать не корректно! Узнать как включить Javascript можно на Google Support