Categories
Welcome to Music Torrent Tracker - Sound-Park  ι  JOIN US FOR FULL ACCESS  ι  Log In  ι  Forgot your password?

Anima Eterna Brugge - Schubert & Berwald: Chamber Music (Lossless, Hi Res 2019)

Classical
 
Anima Eterna Brugge - Schubert & Berwald: Chamber Music (Lossless, Hi Res 2019)
Anima Eterna Brugge - Schubert & Berwald: Chamber Music (Lossless, Hi Res 2019)
Date: 10 april 2019
Added: StasOn11
Views: 418
  • ARTIST: Anima Eterna Brugge
  • ALBUM / TITLE: Schubert & Berwald: Chamber Music
  • RELEASE YEAR / DATE: 2019
  • STYLE: Classical
  • LABEL: © 2019 Alpha Classics
  • DURATION: 01:21:08
  • FILE FORMAT: FLAC, (tracks) 24 bits, 96 KHz
  • QUALITY: Lossless

  • RATING: 10 / 4    
  • VOTE:

  • DOWNLOAD: DOWNLOAD TORRENT

Torrent description



01-06. Schubert: Octet in F major, D803
07-09. Berwald: Grand Septet in B flat major

Qobuz

Источник (релизер): ipokemongo


foobar2000 1.4.2 / Dynamic Range Meter 1.1.1
log date: 2019-04-07 13:04:15

--------------------------------------------------------------------------------
Analyzed: Anima Eterna Brugge / Schubert & Berwald: Chamber Music
--------------------------------------------------------------------------------

DR Peak RMS Duration Track
--------------------------------------------------------------------------------
DR12 -0.03 dB -17.20 dB 13:47 01-I. Adagio - Allegro - Più allegro
DR15 -0.03 dB -21.77 dB 10:41 02-Octet in F Major, D. 803: II. Adagio
DR12 -0.03 dB -16.64 dB 6:09 03-Octet in F Major, D. 803: III. Scherzo (Allegro vivace)
DR15 -1.43 dB -21.39 dB 11:21 04-Octet in F Major, D. 803: IV. Andante - Un poco più mosso - Più lento
DR14 -0.32 dB -20.30 dB 6:19 05-Octet in F Major, D. 803: V. Menuetto (Allegretto)
DR14 -0.03 dB -18.47 dB 9:10 06-Octet in F Major, D. 803: VI. Andante molto - Allegro - Andante molto - Allegro moto
DR14 -1.34 dB -20.50 dB 7:21 07-I. Adagio - Allegro molto
DR15 -0.15 dB -21.04 dB 8:42 08-II. Poco adagio - Prestissimo - Adagio
DR14 -0.03 dB -19.12 dB 7:43 09-III. Finale (Allegro con spirito)
--------------------------------------------------------------------------------

Number of tracks: 9
Official DR value: DR14

Samplerate: 96000 Hz
Channels: 2
Bits per sample: 24
Bitrate: 2402 kbps
Codec: FLAC
================================================================================



Comments (4)


14 april 2019
estebanesteban   
0 
PR:XCityXXX GBXXX GBПостовХС
В
Л
Х

Thanks


13 april 2019
woollies66   
0 
PR:XCityXXX GBXXX GBПостовХС
В
Л
Х

Thanx


12 april 2019
rotihellas   
0 
PR:XCityXXX GBXXX GBПостовХС
В
Л
Х

Thanks!


10 april 2019
Bagdee   
0 
PR:XCityXXX GBXXX GBПостовХС
В
Л
Х

Thank you



 

Please enable Javascript!
Пожалуйста включите Javascript, иначе данный и другие сайты могут работать не корректно! Узнать как включить Javascript можно на Google Support