Categories
Welcome to Music Torrent Tracker - Sound-Park  ι  JOIN US FOR FULL ACCESS  ι  Log In  ι  Forgot your password?

Christian Thielemann & Staatskapelle Dresden - Schumann: Symphonies Nos. 1-4 (Lossless, Hi Res 2019)

Classical
 
Christian Thielemann & Staatskapelle Dresden - Schumann: Symphonies Nos. 1-4 (Lossless, Hi Res 2019)
Christian Thielemann & Staatskapelle Dresden - Schumann: Symphonies Nos. 1-4 (Lossless, Hi Res 2019)
Date: 10 april 2019
Added: StasOn11
Views: 590
  • ARTIST: Christian Thielemann & Staatskapelle Dresden
  • ALBUM / TITLE: Schumann: Symphonies Nos. 1-4
  • RELEASE YEAR / DATE: 2019
  • STYLE: Classical
  • LABEL: Sony
  • DURATION: 02:20:32
  • FILE FORMAT: FLAC, (tracks) 24 bits, 96 KHz
  • QUALITY: Lossless

  • RATING: 8.86 / 7    
  • VOTE:

  • DOWNLOAD: DOWNLOAD TORRENT

Torrent description



01-04. Schumann: Symphony No. 1 in B flat major, Op. 38 'Spring' 34:23
05-08. Schumann: Symphony No. 2 in C major, Op. 61 40:20
09-13. Schumann: Symphony No. 3 in E flat major, Op. 97 'Rhenish' 34:00
14-17. Schumann: Symphony No. 4 in D minor, Op. 120 31:49

Prestomusic

Источник (релизер): ipokemongo


foobar2000 1.4.2 / Dynamic Range Meter 1.1.1
log date: 2019-04-07 15:19:55

--------------------------------------------------------------------------------
Analyzed: Christian Thielemann / Schumann: Symphonies
--------------------------------------------------------------------------------

DR Peak RMS Duration Track
--------------------------------------------------------------------------------
DR14 -0.49 dB -20.23 dB 12:21 01-I. Andante un poco maestoso - Allegro molto vivace
DR14 -5.03 dB -26.33 dB 6:30 02-II. Larghetto
DR14 -1.74 dB -20.74 dB 6:10 03-III. Scherzo. Molto vivace
DR13 -0.49 dB -19.25 dB 9:15 04-IV. Allegro animato e grazioso
DR14 -0.49 dB -20.59 dB 12:49 05-I. Sostenuto assai - Allegro ma non troppo
DR14 -2.88 dB -23.10 dB 8:00 06-II. Scherzo. Allegro vivace
DR15 -8.44 dB -28.90 dB 10:30 07-III. Adagio espressivo
DR13 -0.48 dB -18.37 dB 9:05 08-IV. Allegro molto vivace
DR14 -0.48 dB -19.57 dB 10:04 09-I. Lebhaft
DR13 -2.79 dB -22.68 dB 7:07 10-II. Scherzo. Sehr mäßig
DR13 -10.20 dB -30.20 dB 5:34 11-III. Nicht schnell
DR14 -0.45 dB -21.02 dB 5:01 12-IV. Feierlich
DR14 -0.45 dB -18.58 dB 6:09 13-V. Lebhaft
DR14 -0.49 dB -20.75 dB 11:24 14-I. Ziemlich langsam - Lebhaft
DR13 -11.89 dB -30.82 dB 4:17 15-II. Romanze. Ziemlich langsam
DR15 -2.35 dB -24.51 dB 6:11 16-III. Scherzo. Lebhaft
DR14 -0.48 dB -19.67 dB 10:01 17-IV. Langsam - Lebhaft
--------------------------------------------------------------------------------

Number of tracks: 17
Official DR value: DR14

Samplerate: 96000 Hz
Channels: 2
Bits per sample: 24
Bitrate: 2451 kbps
Codec: FLAC
================================================================================



Comments (1)


10 april 2019
Bagdee   
0 
PR:XCityXXX GBXXX GBПостовХС
В
Л
Х

Thank you



 

Please enable Javascript!
Пожалуйста включите Javascript, иначе данный и другие сайты могут работать не корректно! Узнать как включить Javascript можно на Google Support