Categories
Welcome to Music Torrent Tracker - Sound-Park  ι  JOIN US FOR FULL ACCESS  ι  Log In  ι  Forgot your password?

Martin Rummel & Roland Kruger - Reinecke: Complete Works for Cello & Piano (Lossless, Hi Res 2019)

Classical
 
Martin Rummel & Roland Kruger - Reinecke: Complete Works for Cello & Piano (Lossless, Hi Res 2019)
Martin Rummel & Roland Kruger - Reinecke: Complete Works for Cello & Piano (Lossless, Hi Res 2019)
Date: 10 april 2019
Added: StasOn11
Views: 721
  • ARTIST: Martin Rummel & Roland Kruger
  • ALBUM / TITLE: Reinecke: Complete Works for Cello & Piano
  • RELEASE YEAR / DATE: 2019
  • STYLE: Classical
  • LABEL: Naxos
  • DURATION: 01:17:54
  • FILE FORMAT: FLAC, (tracks) 24 bits, 96 KHz
  • QUALITY: Lossless

  • RATING: 10 / 6    
  • VOTE:

  • DOWNLOAD: DOWNLOAD TORRENT

Torrent description



01-03. Reinecke: Cello Sonata in A minor, Op. 42 20:02

04-07. Reinecke: Cello Sonata in D major, Op. 89 22:32

08-10. Reinecke: Pieces (3) for Cello & Piano, Op. 146 11:54

11-13. Reinecke: Cello Sonata in G major, Op. 238 23:11

Prestomusic

Источник (релизер): ipokemongo


foobar2000 1.4.2 / Dynamic Range Meter 1.1.1
log date: 2019-03-13 09:39:35

--------------------------------------------------------------------------------
Analyzed: Martin Rummel / Reinecke: Complete Works for Cello & Piano
--------------------------------------------------------------------------------

DR Peak RMS Duration Track
--------------------------------------------------------------------------------
DR13 -0.40 dB -19.40 dB 8:20 01-Cello Sonata No. 1 in A Minor, Op. 42: I. Allegro moderato
DR12 -3.44 dB -21.55 dB 3:29 02-Cello Sonata No. 1 in A Minor, Op. 42: IIa. Lento ma non troppo
DR12 -3.87 dB -22.68 dB 2:14 03-Cello Sonata No. 1 in A Minor, Op. 42: IIb. Intermezzo
DR13 -0.12 dB -16.27 dB 6:01 04-Cello Sonata No. 1 in A Minor, Op. 42: III. Finale. Allegro molto ed appassionato
DR12 -1.63 dB -18.53 dB 8:27 05-Cello Sonata No. 2 in D Major, Op. 89: I. Lento-Allegro molto moderato
DR12 -5.45 dB -22.21 dB 5:26 06-Cello Sonata No. 2 in D Major, Op. 89: II. Andante-In tempo animato
DR13 -0.30 dB -16.97 dB 8:40 07-Cello Sonata No. 2 in D Major, Op. 89: III. Finale. Moderato
DR11 -5.06 dB -20.00 dB 3:01 08-3 Pieces for Cello & Piano, Op. 146: No. 1, Arioso
DR14 -1.82 dB -20.78 dB 4:28 09-3 Pieces for Cello & Piano, Op. 146: No. 2, Gavotte
DR14 -0.37 dB -20.49 dB 4:27 10-3 Pieces for Cello & Piano, Op. 146: No. 3, Scherzo
DR14 -0.77 dB -19.36 dB 11:35 11-Cello Sonata No. 3 in G Major, Op. 238: I. Adagio-Un poco più animato
DR13 -2.44 dB -20.39 dB 6:08 12-Cello Sonata No. 3 in G Major, Op. 238: II. Andante mesto
DR13 -0.46 dB -16.85 dB 5:39 13-Cello Sonata No. 3 in G Major, Op. 238: III. Finale. Allegro
--------------------------------------------------------------------------------

Number of tracks: 13
Official DR value: DR13

Samplerate: 96000 Hz
Channels: 2
Bits per sample: 24
Bitrate: 2386 kbps
Codec: FLAC
================================================================================



Comments (4)


22 april 2019
lttl   
0 
PR:XCityXXX GBXXX GBПостовХС
В
Л
Х

Спасибо!


13 april 2019
woollies66   
0 
PR:XCityXXX GBXXX GBПостовХС
В
Л
Х

Thanx


11 april 2019
rotihellas   
0 
PR:XCityXXX GBXXX GBПостовХС
В
Л
Х

Thanks!


10 april 2019
Bagdee   
0 
PR:XCityXXX GBXXX GBПостовХС
В
Л
Х

Thank you



 

Please enable Javascript!
Пожалуйста включите Javascript, иначе данный и другие сайты могут работать не корректно! Узнать как включить Javascript можно на Google Support