Categories
Welcome to Music Torrent Tracker - Sound-Park  ι  JOIN US FOR FULL ACCESS  ι  Log In  ι  Forgot your password?

Andy Black - The Ghost of Ohio (Lossless, Hi Res 2019)

Alt Rock  Pop-Rock
 
Date: 13 april 2019
Added: StasOn11
Views: 1529
  • ARTIST: Andy Black
  • ALBUM / TITLE: The Ghost of Ohio
  • RELEASE YEAR / DATE: 2019
  • COUNTRY: United States
  • STYLE: Alternative Rock, Pop Rock
  • LABEL: Lava Music / Republic Records
  • DURATION: 00:40:15
  • FILE FORMAT: FLAC, (tracks) 24 bits, 44,1 KHz
  • QUALITY: Lossless

  • RATING: 9 / 10    
  • VOTE:

  • DOWNLOAD: DOWNLOAD TORRENT

Torrent description



01. Introduction: Resurrection (2:29)
02. The Promise (3:33)
03. Westwood Road (3:03)
04. Know One (2:41)
05. Soul Like Me (3:28)
06. The Wind & Spark (3:33)
07. Ghost of Ohio (3:26)
08. Heroes We Were (4:18)
09. Feast or Famine (3:43)
10. Heaven (3:42)
11. The Martyr (2:48)
12. Fire In My Mind (3:33)

Qobuz

Источник (релизер): Andromaxvic


foobar2000 1.4.3 / Замер динамического диапазона (DR) 1.1.1
Дата отчёта: 2019-04-12 17:25:28

--------------------------------------------------------------------------------
Анализ: Andy Black / The Ghost of Ohio
--------------------------------------------------------------------------------

DR Пики RMS Продолжительность трека
--------------------------------------------------------------------------------
DR5 -0.20 дБ -8.28 дБ 2:29 01-Introduction: Resurrection
DR5 -0.20 дБ -6.69 дБ 3:33 02-The Promise
DR6 -0.20 дБ -7.36 дБ 3:03 03-Westwood Road
DR5 -0.20 дБ -7.16 дБ 2:41 04-Know One
DR5 -0.20 дБ -7.83 дБ 3:28 05-Soul Like Me
DR6 -0.20 дБ -7.68 дБ 3:33 06-The Wind & Spark
DR5 -0.20 дБ -8.48 дБ 3:26 07-Ghost of Ohio
DR6 -0.20 дБ -8.17 дБ 4:18 08-Heroes We Were
DR5 -0.20 дБ -7.15 дБ 3:43 09-Feast or Famine
DR5 -0.20 дБ -8.14 дБ 3:42 10-Heaven
DR5 -0.20 дБ -7.28 дБ 2:48 11-The Martyr
DR5 -0.20 дБ -8.42 дБ 3:33 12-Fire In My Mind
--------------------------------------------------------------------------------

Количество треков: 12
Реальные значения DR: DR5

Частота: 44100 Гц
Каналов: 2
Разрядность: 24
Битрейт: 1667 кбит/с
Кодек: FLAC
================================================================================



Comments (4)


17 april 2019
StasOn11   
+1 
PR:XCityXXX GBXXX GBПостовХС
В
Л
Х

Citation:  Чапаев007
Спасибо!!!

Благодарю за "Спасибо"!


16 april 2019
Чапаев007   
+2 
PR:XCityXXX GBXXX GBПостовХС
В
Л
Х

Спасибо!!!


15 april 2019
aleox16   
+1 
PR:XCityXXX GBXXX GBПостовХС
В
Л
Х

gracias


13 april 2019
Bagdee   
+1 
PR:XCityXXX GBXXX GBПостовХС
В
Л
Х

Thank you



 
Please enable Javascript!
Пожалуйста включите Javascript, иначе данный и другие сайты могут работать не корректно! Узнать как включить Javascript можно на Google Support