Categories
Welcome to Music Torrent Tracker - Sound-Park  ι  JOIN US FOR FULL ACCESS  ι  Log In  ι  Forgot your password?

Herlin Riley - Perpetual Optimism (Lossless, Hi Res 2019)

Jazz
 
Date: 13 april 2019
Added: StasOn11
Views: 879
  • ARTIST: Herlin Riley
  • ALBUM / TITLE: Perpetual Optimism
  • RELEASE YEAR / DATE: 2019
  • STYLE: Jazz, Contemporary Jazz
  • LABEL: Mack Avenue Records
  • DURATION: 00:59:18
  • FILE FORMAT: FLAC, (tracks) 24 bits, 96 KHz
  • QUALITY: Lossless

  • RATING: 10 / 5    
  • VOTE:

  • DOWNLOAD: DOWNLOAD TORRENT

Torrent description



01. Rush Hour (06:54)
02. Be There When I Get There (05:49)
03. Borders Without Lines (04:49)
04. You Don’t Know What Love Is (05:40)
05. Perpetual Optimism (07:06)
06. Touched (07:20)
07. Wings and Roots (06:23)
08. Wang Dang Doodle (06:34)
09. Stella By Starlight (04:05)
10. Twelve’s It (04:38)

Highresaudio

Источник (релизер): Stephenten

“I want to live in a world where my glass is always half full!” That’s the inspiring maxim of New Orleans master drummer Herlin Riley. On his second Mack Avenue Records release, Perpetual Optimism, the longtime anchor of the Jazz at Lincoln Center Orchestra preaches his silver-lined gospel on 10 tracks whose joyous spirit and contagious swing are sure to convert any listener to the bright side.

In the end, Riley hopes that the music of Perpetual Optimism helps spread the upbeat manifesto that he’s chosen to live by. “I always look forward, no matter what happens in life. If you’re grieving or faced with an emotional challenge, keep in mind: If you’re still breathing, there’s a chance that you can overcome and thrive. Commit yourself to PERPETUAL OPTIMISM!”

"If more albums like this were being made today, the world wouldn't be in the terrible state it's in. People would be far too happy to want to do the dirty on one another." (AllAboutJazz)

Herlin Riley, drums, vocals
Emmett Cohen, piano
Russell Hall, bass
Godwin Louis, alto saxophone
Bruce Harris, trumpet


foobar2000 1.4 / Dynamic Range Meter 1.1.1
log date: 2019-04-12 05:42:58

--------------------------------------------------------------------------------
Analyzed: Herlin Riley / Perpetual Optimism
--------------------------------------------------------------------------------

DR Peak RMS Duration Track
--------------------------------------------------------------------------------
DR10 -0.32 dB -12.77 dB 6:55 01-Rush Hour
DR10 -0.32 dB -12.45 dB 5:50 02-Be There When I Get There
DR9 -0.62 dB -11.24 dB 4:49 03-Borders Without Lines
DR14 -0.32 dB -18.12 dB 5:41 04-You Don’t Know What Love Is
DR9 -0.32 dB -11.62 dB 7:06 05-Perpetual Optimism
DR12 -0.32 dB -15.94 dB 7:21 06-Touched
DR10 -0.32 dB -12.79 dB 6:23 07-Wings and Roots
DR10 -0.32 dB -12.33 dB 6:34 08-Wang Dang Doodle
DR16 -0.35 dB -20.29 dB 4:05 09-Stella By Starlight
DR10 -0.32 dB -12.48 dB 4:38 10-Twelve’s It
--------------------------------------------------------------------------------

Number of tracks: 10
Official DR value: DR11
Samplerate: 96000 Hz
Channels: 2
Bits per sample: 24
Bitrate: 3146 kbps
Codec: FLAC
================================================================================



Comments (3)


14 april 2019
rotihellas   
0 
PR:XCityXXX GBXXX GBПостовХС
В
Л
Х

Thanks!


14 april 2019
Hykfal   
0 
PR:XCityXXX GBXXX GBПостовХС
В
Л
Х

Thanks


13 april 2019
Bagdee   
+1 
PR:XCityXXX GBXXX GBПостовХС
В
Л
Х

Thank you



 

Please enable Javascript!
Пожалуйста включите Javascript, иначе данный и другие сайты могут работать не корректно! Узнать как включить Javascript можно на Google Support