Categories
Welcome to Music Torrent Tracker - Sound-Park  ι  JOIN US FOR FULL ACCESS  ι  Log In  ι  Forgot your password?

Christina Skjolberg - Come And Get It (Lossless, Hi Res 2014)

Blues-rock
 
Date: 13 april 2019
Added: StasOn11
Views: 2168
  • ARTIST: Christina Skjolberg
  • ALBUM / TITLE: Come And Get It
  • RELEASE YEAR / DATE: 2014
  • STYLE: Blues Rock
  • LABEL: Ruf Records
  • DURATION: 00:40:43
  • FILE FORMAT: FLAC, (tracks) 24 bits, 44,1 KHz
  • QUALITY: Lossless

  • RATING: 8.88 / 8    
  • VOTE:

  • DOWNLOAD: DOWNLOAD TORRENT

Torrent description



01. Come and Get It
02. Runaway
03. Close the Door
04. Bullet
05. Get On
06. Moving On
07. Inspiration
08. Hush
09. I’m Back
10. Mrs Funk
11. Nag Blues

Highresaudio

Источник (релизер): gyji58



foobar2000 1.3.7 / Dynamic Range Meter 1.1.1

--------------------------------------------------------------------------------
Analyzed: Christina Skjolberg / Come And Get It
--------------------------------------------------------------------------------

DR Peak RMS Duration Track
--------------------------------------------------------------------------------
DR8 -0.17 dB -9.39 dB 3:40 01-Come And Get It
DR8 -0.19 dB -8.31 dB 3:02 02-Runaway
DR6 -0.19 dB -6.64 dB 4:48 03-Close The Door
DR5 -0.17 dB -6.45 dB 3:16 04-Bullet
DR9 -0.19 dB -9.79 dB 3:35 05-Get On
DR6 -0.18 dB -7.16 dB 4:37 06-Moving On
DR6 -0.19 dB -7.37 dB 2:35 07-Inspiration
DR7 -0.18 dB -8.40 dB 3:43 08-Hush
DR6 -0.17 dB -6.93 dB 4:17 09-I'm Back
DR6 -0.19 dB -7.13 dB 3:45 10-Mrs. Funk
DR7 -0.17 dB -8.26 dB 3:25 11-Nag Blues
--------------------------------------------------------------------------------

Number of tracks: 11
Official DR value: DR7

Samplerate: 44100 Hz
Channels: 2
Bits per sample: 24
Bitrate: 1620 kbps
Codec: FLAC
================================================================================



Comments (7)


15 april 2019
knut63   
0 
PR:XCityXXX GBXXX GBПостовХС
В
Л
Х

Нехило жжёт дивчина!


14 april 2019
StasOn11   
0 
PR:XCityXXX GBXXX GBПостовХС
В
Л
Х

Citation:  yuriy75
большое спасибо за релиз!!!

Спасибо за "Спасибо"!


14 april 2019
aleox16   
0 
PR:XCityXXX GBXXX GBПостовХС
В
Л
Х

gracias


14 april 2019
yuriy75   
+1 
PR:XCityXXX GBXXX GBПостовХС
В
Л
Х

большое спасибо за релиз!!!


13 april 2019
coyotte   
0 
PR:XCityXXX GBXXX GBПостовХС
В
Л
Х

merci bien


13 april 2019
H3llogu3st   
0 
PR:XCityXXX GBXXX GBПостовХС
В
Л
Х

Thanks for the share


13 april 2019
Bagdee   
0 
PR:XCityXXX GBXXX GBПостовХС
В
Л
Х

Thank you



 
Please enable Javascript!
Пожалуйста включите Javascript, иначе данный и другие сайты могут работать не корректно! Узнать как включить Javascript можно на Google Support