Categories
Welcome to Music Torrent Tracker - Sound-Park  ι  JOIN US FOR FULL ACCESS  ι  Log In  ι  Forgot your password?

Hans H. Suh - Beethoven, Debussy, Liszt & Schumann: Piano Works (Live) (Lossless, Hi Res 2019)

Classical
 
Hans H. Suh - Beethoven, Debussy, Liszt & Schumann: Piano Works (Live) (Lossless, Hi Res 2019)
Hans H. Suh - Beethoven, Debussy, Liszt & Schumann: Piano Works (Live) (Lossless, Hi Res 2019)
Date: 14 april 2019
Added: StasOn11
Views: 356
  • ARTIST: Hans H. Suh
  • ALBUM / TITLE: Beethoven, Debussy, Liszt & Schumann: Piano Works (Live)
  • RELEASE YEAR / DATE: 2019
  • STYLE: Classical
  • LABEL: Genuin
  • DURATION: 01:08:00
  • FILE FORMAT: FLAC, (tracks) 24 bits, 96 KHz
  • QUALITY: Lossless

  • RATING: 10 / 4    
  • VOTE:

  • DOWNLOAD: DOWNLOAD TORRENT

Torrent description



01-06. Beethoven: Bagatelles (6), Op. 126 17:58
07. Liszt: Piano Sonata in B minor, S178 30:32
08. Debussy: Préludes - Book 2 - No. 7, La terrasse des audiences du clair de lune 4:42
09. Debussy: Suite Bergamasque - III. Clair de lune 4:37
10. Schumann: Arabeske in C major, Op. 18 6:58
11. Schumann: Kinderszenen, Op. 15 - No. 7, Träumerei (Live) 3:13

Prestomusic

Источник (релизер): ipokemongo



foobar2000 1.4.2 / Dynamic Range Meter 1.1.1
log date: 2019-04-08 21:42:03

--------------------------------------------------------------------------------
Analyzed: Hans H. Suh / Beethoven, Debussy, Liszt & Schumann: Piano Works (Live)
--------------------------------------------------------------------------------

DR Peak RMS Duration Track
--------------------------------------------------------------------------------
DR11 -8.59 dB -25.26 dB 2:49 01-6 Bagatelles, Op. 126: No. 1, Andante con moto (Live)
DR13 -4.17 dB -21.00 dB 2:49 02-6 Bagatelles, Op. 126: No. 2, Allegro (Live)
DR12 -10.29 dB -27.78 dB 2:26 03-6 Bagatelles, Op. 126: No. 3, Andante (Live)
DR12 -1.60 dB -19.22 dB 3:53 04-6 Bagatelles, Op. 126: No. 4, Presto (Live)
DR13 -6.43 dB -26.25 dB 2:14 05-6 Bagatelles, Op. 126: No. 5, Quasi allegretto (Live)
DR16 -3.10 dB -24.59 dB 3:50 06-6 Bagatelles, Op. 126: No. 6, Presto (Live)
DR12 -0.30 dB -17.90 dB 30:32 07-Piano Sonata in B Minor, S. 178 (Live)
DR17 -1.80 dB -26.41 dB 4:42 08-Préludes, Book 2, L. 123: No. 7, La terrasse des audiences du clair de lune (Live)
DR12 -8.89 dB -27.83 dB 4:37 09-Suite bergamasque, L. 75: III. Clair de lune (Live)
DR16 -2.60 dB -24.17 dB 6:59 10-Arabeske in C Major, Op. 18 (Live)
DR19 -4.20 dB -31.23 dB 3:14 11-Kinderszenen, Op. 15: No. 7, Träumerei (Live)
--------------------------------------------------------------------------------

Number of tracks: 11
Official DR value: DR14

Samplerate: 96000 Hz
Channels: 2
Bits per sample: 24
Bitrate: 2550 kbps
Codec: FLAC
================================================================================



Comments (3)


19 april 2019
natxo17   
0 
PR:XCityXXX GBXXX GBПостовХС
В
Л
Х

Great! Thank you.


19 april 2019
edkarlos   
0 
PR:XCityXXX GBXXX GBПостовХС
В
Л
Х

Divine Works... perfect. sensational...


14 april 2019
Bagdee   
0 
PR:XCityXXX GBXXX GBПостовХС
В
Л
Х

Thank you



 

Please enable Javascript!
Пожалуйста включите Javascript, иначе данный и другие сайты могут работать не корректно! Узнать как включить Javascript можно на Google Support