Categories
Welcome to Music Torrent Tracker - Sound-Park  ι  JOIN US FOR FULL ACCESS  ι  Log In  ι  Forgot your password?

Insula Orchestra & Laurence Equilbey - Beethoven (Lossless, Hi Res 2019)

Classical
 
Date: 14 april 2019
Added: StasOn11
Views: 540
  • ARTIST: Insula Orchestra & Laurence Equilbey
  • ALBUM / TITLE: Beethoven: Choral Fantasy & Triple Concerto
  • RELEASE YEAR / DATE: 2019
  • STYLE: Classical
  • LABEL: Erato
  • DURATION: 00:53:15
  • FILE FORMAT: FLAC, (tracks) 24 bits, 96 KHz
  • QUALITY: Lossless

  • RATING: 10 / 5    
  • VOTE:

  • DOWNLOAD: DOWNLOAD TORRENT

Torrent description



Fantasia in C Minor, Op. 80, "Choral Fantasy"
1. I. Adagio
2. II. Finale

Triple Concerto in C Major, Op. 56
3. I. Allegro
4. II. Largo
5. III. Rondo alla Polacca

Prestomusic

Источник (релизер): Stephenten

Conductor Laurence Equilbey is fascinated and inspired by the unconventional, hybrid character of Beethoven’s Choral Fantasy and Triple Concerto. She sees it as “the root of their originality, which gives them a special place in Beethoven’s output and in the history of music as a whole.” Their fusion of genres is reflected in performances that unite the period instruments of Equilbey’s Insula orchestra and soloists – pianists Bertrand Chamayou and David Kadouch, violinist Alexandra Conunova and cellist Natalie Clein – who are best known for playing modern instruments.

Alexandra Conunova, violin
Natalie Clein, cello
David Kadouch, piano
Bertrand Chamayou, piano
Sandrine Piau, soprano
Anaïck Morel, mezzo
Stanislas de Barbeyrac, tenor
Florian Sempey, bass
Insula orchestra,
Laurence Equilbey, conductor


foobar2000 1.4 / Dynamic Range Meter 1.1.1
log date: 2019-04-12 05:59:22

--------------------------------------------------------------------------------
Analyzed: Accentus - Laurence Equilbey / Beethoven: Triple Concerto & Choral Fantasy
--------------------------------------------------------------------------------

DR Peak RMS Duration Track
--------------------------------------------------------------------------------
DR13 -6.41 dB -23.76 dB 3:12 01-Fantasia in C Minor, Op. 80, "Choral Fantasy": I. Adagio
DR14 -1.13 dB -20.54 dB 15:07 02-Fantasia in C Minor, Op. 80, "Choral Fantasy": II. Finale
DR15 -0.20 dB -21.66 dB 17:44 03-Triple Concerto in C Major, Op. 56: I. Allegro
DR15 -4.98 dB -25.45 dB 4:29 04-Triple Concerto in C Major, Op. 56: II. Largo
DR15 -1.59 dB -22.11 dB 12:46 05-Triple Concerto in C Major, Op. 56: III. Rondo alla Polacca
--------------------------------------------------------------------------------

Number of tracks: 5
Official DR value: DR14
Samplerate: 96000 Hz
Channels: 2
Bits per sample: 24
Bitrate: 2453 kbps
Codec: FLAC
================================================================================



Comments (3)


19 april 2019
rotihellas   
0 
PR:XCityXXX GBXXX GBПостовХС
В
Л
Х

Thanks!!


19 april 2019
edkarlos   
0 
PR:XCityXXX GBXXX GBПостовХС
В
Л
Х

BEETHOVEN, the master.... Greatful job


14 april 2019
Bagdee   
0 
PR:XCityXXX GBXXX GBПостовХС
В
Л
Х

Thank you



 

Please enable Javascript!
Пожалуйста включите Javascript, иначе данный и другие сайты могут работать не корректно! Узнать как включить Javascript можно на Google Support