Categories
Welcome to Music Torrent Tracker - Sound-Park  ι  JOIN US FOR FULL ACCESS  ι  Log In  ι  Forgot your password?

Renaud Capucon, Kian Soltani & Lahav Shani - Tchaikovsky & Dvorak:Piano Trio (Lossless, Hi Res 2019)

Classical
 
Date: 14 april 2019
Added: StasOn11
Views: 455
  • ARTIST: Renaud Capucon, Kian Soltani & Lahav Shani
  • ALBUM / TITLE: Tchaikovsky & Dvorak: Piano Trio
  • RELEASE YEAR / DATE: 2019
  • STYLE: Classical
  • LABEL: Erato
  • DURATION: 01:18:25
  • FILE FORMAT: FLAC, (tracks) 24 bits, 44,1 / 96 KHz
  • QUALITY: Lossless

  • RATING: 10 / 4    
  • VOTE:

  • DOWNLOAD: DOWNLOAD TORRENT

Torrent description



Pjotr Iljitsch Tschaikowski (1840 - 1893)
Piano Trio in A Minor, Op. 50, TH 117
1. I. Pezzo elegiaco. Moderato assai - Allegro giusto
2. II. Tema con variazione

Antonín Dvořák (1841 - 1904)
Piano Trio No. 3 in F Minor, Op. 65, B. 130
3. I. Allegro ma non troppo
4. II. Allegretto grazioso
5. III. Poco adagio
6. IV. Finale. Allegro con brio

Live from Aix Easter Festival, 5 April 2018
Conservatoire Darius Milhaud, Aix-en-Provence, France

Prestomusic

Источник (релизер): Stephenten

This recording features two major works of the chamber repertoire – one by Antonín Dvořák, the other by Pyotr Ilyich Tchaikovsky. The two composers were contemporaries, born just a year apart: Tchaikovsky in 1840 and Dvořák in 1841. In the 1880s (Tchaikovsky’s Op.50 dates from 1881, Dvořák’s Op.65 from 1883), neither man was known for his chamber music – Tchaikovsky’s reputation was based on his opera and ballet scores (works such as Eugene Onegin and Swan Lake), while Dvořák had made his name with works influenced by Slavonic folk music (the Moravian Duets and Slavonic Dances). Each of these two piano trios therefore has its own unique character, and both works signal new directions in the style of their respective composers.

Renaud Capuçon, violin
Lahav Shani, piano
Kian Soltani, cello


foobar2000 1.4 / Dynamic Range Meter 1.1.1
log date: 2019-04-12 19:04:07

--------------------------------------------------------------------------------
Analyzed: Renaud Capuçon / Tchaikovsky: Piano Trio, Op. 50 - Dvorák: Piano Trio No. 3 (Live)
--------------------------------------------------------------------------------

DR Peak RMS Duration Track
--------------------------------------------------------------------------------
DR11 -0.10 dB -15.51 dB 22:37 02-Piano Trio in A Minor, Op. 50, TH 117: II. Tema con variazione (Live)
DR11 -0.10 dB -15.01 dB 12:55 03-Piano Trio No. 3 in F Minor, Op. 65, B. 130: I. Allegro ma non troppo (Live)
DR11 -0.10 dB -15.75 dB 6:28 04-Piano Trio No. 3 in F Minor, Op. 65, B. 130: II. Allegretto grazioso (Live)
DR12 -1.13 dB -19.20 dB 9:33 05-Piano Trio No. 3 in F Minor, Op. 65, B. 130: III. Poco adagio (Live)
DR11 -0.11 dB -14.97 dB 9:27 06-Piano Trio No. 3 in F Minor, Op. 65, B. 130: IV. Finale. Allegro con brio (Live)
--------------------------------------------------------------------------------

Number of tracks: 5
Official DR value: DR11
Samplerate: 96000 Hz
Channels: 2
Bits per sample: 24
Bitrate: 2353 kbps
Codec: FLAC
================================================================================
foobar2000 1.4 / Dynamic Range Meter 1.1.1
log date: 2019-04-12 19:03:51

--------------------------------------------------------------------------------
Statistics for: 01-Piano Trio in A Minor, Op. 50, TH 117: I. Pezzo elegiaco. Moderato assai - Allegro giusto (Live)
Number of samples: 46210332
Duration: 17:28
--------------------------------------------------------------------------------

Left Right

Peak Value: -0.30 dB --- -0.29 dB
Avg RMS: -15.45 dB --- -14.97 dB
DR channel: 11.13 dB --- 10.62 dB
--------------------------------------------------------------------------------

Official DR Value: DR11
Samplerate: 44100 Hz
Channels: 2
Bits per sample: 24
Bitrate: 1337 kbps
Codec: FLAC
================================================================================



Comments (4)


19 april 2019
rotihellas   
0 
PR:XCityXXX GBXXX GBПостовХС
В
Л
Х

Thanks!


14 april 2019
alsoundbel   
0 
PR:XCityXXX GBXXX GBПостовХС
В
Л
Х

muchas gracias


14 april 2019
Bagdee   
0 
PR:XCityXXX GBXXX GBПостовХС
В
Л
Х

Thank you


14 april 2019
Gaphofone   
0 
PR:XCityXXX GBXXX GBПостовХС
В
Л
Х

Merci bien



 

Please enable Javascript!
Пожалуйста включите Javascript, иначе данный и другие сайты могут работать не корректно! Узнать как включить Javascript можно на Google Support