Categories
Welcome to Music Torrent Tracker - Sound-Park  ι  JOIN US FOR FULL ACCESS  ι  Log In  ι  Forgot your password?

London Philharmonic Orchestra & Kurt Masur - Beethoven (Lossless, Hi Res 2019)

Classical
 
Date: 14 april 2019
Added: StasOn11
Views: 606
  • ARTIST: London Philharmonic Orchestra & Kurt Masur
  • ALBUM / TITLE: Beethoven: Symphonies Nos. 3 & 5
  • RELEASE YEAR / DATE: 2019
  • STYLE: Classical
  • LABEL: LPO - LPO0112
  • DURATION: 01:22:59
  • FILE FORMAT: FLAC, (tracks) 24 bits, 44,1 KHz
  • QUALITY: Lossless

  • RATING: 10 / 5    
  • VOTE:

  • DOWNLOAD: DOWNLOAD TORRENT

Torrent description



01-04. Beethoven: Symphony No. 3 in E flat major, Op. 55 'Eroica' 48:04
05-08. Beethoven: Symphony No. 5 in C minor, Op. 67 34:51

Prestomusic

Источник (релизер): ipokemongo

London Philharmonic Orchestra
Kurt Masur

foobar2000 1.4.2 / Dynamic Range Meter 1.1.1
log date: 2019-03-16 22:55:43

--------------------------------------------------------------------------------
Analyzed: Kurt Masur / Beethoven: Symphonies Nos. 3 & 5
--------------------------------------------------------------------------------

DR Peak RMS Duration Track
--------------------------------------------------------------------------------
DR15 -2.53 dB -22.50 dB 16:59 01-Symphony No. 3 in E-Flat, Op. 55 "Eroica": I. Allegro con brio
DR15 -1.76 dB -24.50 dB 14:05 02-Symphony No. 3 in E-Flat, Op. 55 "Eroica": II. Marcia funebre. Adagio assai
DR14 -0.50 dB -23.76 dB 5:34 03-Symphony No. 3 in E-Flat, Op. 55 "Eroica": III. Scherzo. Allegro vivace
DR15 -1.24 dB -22.12 dB 11:27 04-Symphony No. 3 in E-Flat, Op. 55 "Eroica": IV. Finale. Allegro molto
DR14 -1.51 dB -20.06 dB 7:15 05-Symphony No. 5 in C Minor, Op. 67: I. Allegro con brio
DR15 -1.08 dB -23.06 dB 9:16 06-Symphony No. 5 in C Minor, Op. 67: II. Andante con moto
DR14 -1.39 dB -22.98 dB 7:59 07-Symphony No. 5 in C Minor, Op. 67: III. Allegro
DR14 0.00 dB -17.86 dB 10:23 08-Symphony No. 5 in C Minor, Op. 67: IV. Allegro
--------------------------------------------------------------------------------

Number of tracks: 8
Official DR value: DR14

Samplerate: 44100 Hz
Channels: 2
Bits per sample: 24
Bitrate: 1384 kbps
Codec: FLAC
================================================================================



Comments (4)


21 april 2019
alexblog   
0 
PR:XCityXXX GBXXX GBПостовХС
В
Л
Х

Thank you


19 april 2019
rotihellas   
0 
PR:XCityXXX GBXXX GBПостовХС
В
Л
Х

Thanks!


19 april 2019
edkarlos   
0 
PR:XCityXXX GBXXX GBПостовХС
В
Л
Х

Blessed BE... Divine Beethoven
Very Greatful


14 april 2019
Bagdee   
0 
PR:XCityXXX GBXXX GBПостовХС
В
Л
Х

Thank you



 
Please enable Javascript!
Пожалуйста включите Javascript, иначе данный и другие сайты могут работать не корректно! Узнать как включить Javascript можно на Google Support