Categories
Welcome to Music Torrent Tracker - Sound-Park  ι  JOIN US FOR FULL ACCESS  ι  Log In  ι  Forgot your password?

Horszowski Trio - Schumann: Complete Piano Trios (Lossless, Hi Res 2019)

Classical
 
Horszowski Trio - Schumann: Complete Piano Trios (Lossless, Hi Res 2019)
Horszowski Trio - Schumann: Complete Piano Trios (Lossless, Hi Res 2019)
Date: 14 april 2019
Added: StasOn11
Views: 278
  • ARTIST: Horszowski Trio
  • ALBUM / TITLE: Schumann: Complete Piano Trios
  • RELEASE YEAR / DATE: 2019
  • STYLE: Classical
  • LABEL: Avie
  • DURATION: 01:42:56
  • FILE FORMAT: FLAC, (tracks) 24 bits, 96 KHz
  • QUALITY: Lossless

  • RATING: 10 / 3    
  • VOTE:

  • DOWNLOAD: DOWNLOAD TORRENT

Torrent description



01-04. Schumann: Piano Trio No. 1 in D minor, Op. 63 30:35
05-08. Schumann: Piano Trio No. 2 in F major, Op. 80 26:51
09-12. Schumann: Piano Trio No. 3 in G minor, Op. 110 26:46
13-16. Schumann: Fantasiestücke in A minor for Piano Trio, Op. 88 18:44

Prestomusic

Источник (релизер): ipokemongo


foobar2000 1.4.2 / Dynamic Range Meter 1.1.1
log date: 2019-04-09 11:39:28

--------------------------------------------------------------------------------
Analyzed: Horszowski Trio / Schumann: Complete Piano Trios
--------------------------------------------------------------------------------

DR Peak RMS Duration Track
--------------------------------------------------------------------------------
DR14 0.00 dB -20.04 dB 12:15 01-Trio in D Minor, Op. 63: I. Mit Energie und Leidenschaft
DR14 0.00 dB -19.81 dB 4:52 02-Trio in D Minor, Op. 63: II. Lebhaft, doch nicht zu rasch
DR14 -8.73 dB -29.19 dB 5:41 03-Trio in D Minor, Op. 63: III. Langsam, mit inniger Empfindung
DR13 0.00 dB -18.92 dB 7:48 04-Trio in D Minor, Op. 63: IV. Mit Feuer
DR14 0.00 dB -19.54 dB 7:33 05-Trio in F Major, Op. 80: I. Sehr lebhaft
DR14 -1.73 dB -23.08 dB 8:37 06-Trio in F Major, Op. 80: II. Mit innigem Ausdruck
DR13 -6.10 dB -25.36 dB 5:29 07-Trio in F Major, Op. 80: III. In mäßiger Bewegung
DR14 0.00 dB -19.80 dB 5:15 08-Trio in F Major, Op. 80: IV. Nicht zu rasch
DR14 0.00 dB -19.42 dB 9:28 09-Trio in G Minor, Op. 110: I. Bewegt, doch nicht zu rasch
DR16 -1.13 dB -22.88 dB 5:45 10-Trio in G Minor, Op. 110: II. Ziemlich langsam
DR13 0.00 dB -20.03 dB 4:19 11-Trio in G Minor, Op. 110: III. Rasch
DR14 0.00 dB -18.94 dB 7:17 12-Trio in G Minor, Op. 110: IV. Kraftig, mit Humor
DR12 -4.05 dB -24.32 dB 2:38 13-Phantasiestücke, Op. 88: I. Romanze: Nicht schnell, mit innigem Ausdruck
DR14 0.00 dB -18.77 dB 7:22 14-Phantasiestücke, Op. 88: II. Humoreske - Lebhaft
DR13 -5.96 dB -24.19 dB 3:16 15-Phantasiestücke, Op. 88: III. Duett: Langsam und mit Ausdruck
DR14 0.00 dB -19.45 dB 5:28 16-Phantasiestücke, Op. 88: IV. Finale: Im Marsch-Tempo
--------------------------------------------------------------------------------

Number of tracks: 16
Official DR value: DR14

Samplerate: 96000 Hz
Channels: 2
Bits per sample: 24
Bitrate: 2389 kbps
Codec: FLAC
================================================================================



Comments (1)


14 april 2019
Bagdee   
0 
PR:XCityXXX GBXXX GBПостовХС
В
Л
Х

Thank you



 

Please enable Javascript!
Пожалуйста включите Javascript, иначе данный и другие сайты могут работать не корректно! Узнать как включить Javascript можно на Google Support