Categories
Welcome to Music Torrent Tracker - Sound-Park  ι  JOIN US FOR FULL ACCESS  ι  Log In  ι  Forgot your password?

Rachel Podger - J.S. Bach: Cello Suites (Lossless, Hi Res 2019)

Classical
 
Date: 14 april 2019
Added: StasOn11
Views: 564
  • ARTIST: Rachel Podger
  • ALBUM / TITLE: J.S. Bach: Cello Suites
  • RELEASE YEAR / DATE: 2019
  • STYLE: Classical
  • LABEL: Channel Classics Records
  • DURATION: 02:07:23
  • FILE FORMAT: FLAC, (tracks) 24 bits, 44,1 KHz
  • QUALITY: Lossless

  • RATING: 10 / 3    
  • VOTE:

  • DOWNLOAD: DOWNLOAD TORRENT

Torrent description



Johann Sebastian Bach (1685-1750) :
01-06. Cello Suite No.1 in G Major, BWV1007 - transcribed by R. Podger (D Major) 16:36
07-12. Cello Suite No.2 in D minor, BWV1008 - transcribed by R. Podger (A minor) 20:09
13-18. Cello Suite No.3 in C Major, BWV1009 - transcribed by R. Podger (G Major) 20:10
19-24. Cello Suite No.4 in E Flat Major, BWV1010 - transcribed by R. Podger (B Flat Major) 21:42
25-30. Cello Suite No.5 in C minor, BWV1011 - transcribed by R. Podger (G minor) 22:20
31-36. Cello Suite No.6 in D Major, BWV1012 26:24

Channelclassics

Источник (релизер): ipokemongo

(…) Since, I have spent a fair bit of time coaching cellists, both modern and baroque alike, and found myself playing along to demonstrate various points I gradually could feel these pieces joining the violin partitas and sonatas as another kind of ‘daily bread’; I started catching myself playing some of the movements I particularly loved while warming up, and realising that it was actually possible to play them on the violin, and to find a special expressive vocabulary at the higher pitch.
How could one possibly justify it, especially with works that have peppered the recording catalogue with some of the most iconic and adored string performances of all time, the Casals, Fourniers, Torteliers or Starkers? But what I was doing also seemed very much in keeping with Bach’s own habit of recycling his compositions for different instruments and different uses. The examples are endless but I immediately think of the concertos appearing as sinfonias in cantatas, or concertos for violins turned into harpsichord concertos.
The more I reflect, the less I feel the need to be defensive because Bach did far more outrageous things! Think of the Prelude of the E major Partita for violin turned into a full orchestral cantata movement with trumpets and drums…

– Rachel Podger (excerpt from liner notes)

foobar2000 1.4.2 / Dynamic Range Meter 1.1.1
log date: 2019-04-14 12:35:17

--------------------------------------------------------------------------------
Analyzed: Rachel Podger / J.S. Bach - Cello Suites
--------------------------------------------------------------------------------

DR Peak RMS Duration Track
--------------------------------------------------------------------------------
DR13 -5.04 dB -23.03 dB 2:09 01-Prelude
DR14 -4.50 dB -23.63 dB 4:19 02-Allemande
DR15 -5.40 dB -24.83 dB 2:26 03-Courante
DR13 -4.01 dB -25.01 dB 3:01 04-Sarabande
DR14 -4.53 dB -24.03 dB 3:01 05-Menuet I,II
DR13 -4.24 dB -22.99 dB 1:40 06-Gigue
DR13 -2.94 dB -23.05 dB 3:35 07-Prelude
DR14 -4.42 dB -23.31 dB 3:03 08-Allemande
DR13 -6.80 dB -22.92 dB 2:30 09-Courante
DR14 -6.49 dB -25.26 dB 5:00 10-Sarabande
DR15 -4.77 dB -22.72 dB 2:51 11-Menuet I,II
DR13 -5.94 dB -23.34 dB 3:09 12-Gigue
DR13 -1.84 dB -20.54 dB 2:54 13-Prelude
DR15 -4.47 dB -22.81 dB 3:19 14-Allemande
DR13 -5.38 dB -22.42 dB 3:14 15-Courante
DR13 -4.78 dB -23.06 dB 4:18 16-Sarabande
DR16 -2.50 dB -23.50 dB 3:28 17-Bourrée
DR15 -1.18 dB -20.30 dB 2:56 18-Gigue
DR14 -3.34 dB -21.67 dB 2:58 19-Prelude
DR16 -1.81 dB -21.84 dB 4:18 20-Allemande
DR14 -1.19 dB -19.32 dB 3:03 21-Courante
DR14 -2.76 dB -21.53 dB 3:48 22-Sarabande
DR15 -2.27 dB -20.40 dB 4:43 23-Bourrée
DR15 -4.33 dB -22.18 dB 2:53 24-Gigue
DR14 0.00 dB -19.12 dB 5:48 25-Prelude
DR14 -2.86 dB -20.34 dB 5:23 26-Allemande
DR14 0.00 dB -18.56 dB 2:04 27-Courante
DR13 -2.20 dB -22.65 dB 2:29 28-Sarabande
DR15 0.00 dB -19.42 dB 4:30 29-Gavotte I,II
DR13 -4.08 dB -21.30 dB 2:06 30-Gigue
DR14 -6.10 dB -23.65 dB 3:55 31-Prelude
DR14 -4.11 dB -24.54 dB 7:00 32-Allemande
DR14 -3.90 dB -23.63 dB 3:23 33-Courante
DR12 -4.89 dB -23.40 dB 4:23 34-Sarabande
DR13 -4.56 dB -22.47 dB 3:54 35-Gavotte I,II
DR14 -4.87 dB -22.14 dB 3:50 36-Gigue
--------------------------------------------------------------------------------

Number of tracks: 36
Official DR value: DR14

Samplerate: 44100 Hz
Channels: 2
Bits per sample: 24
Bitrate: 1401 kbps
Codec: FLAC
================================================================================



Comments (4)


19 april 2019
edkarlos   
0 
PR:XCityXXX GBXXX GBПостовХС
В
Л
Х

God Blessed your Work.... very Greatful


15 april 2019
Bagdee   
0 
PR:XCityXXX GBXXX GBПостовХС
В
Л
Х

Thank you


14 april 2019
fra0oxf   
0 
PR:XCityXXX GBXXX GBПостовХС
В
Л
Х

Merci


14 april 2019
woollies66   
0 
PR:XCityXXX GBXXX GBПостовХС
В
Л
Х

Thanx



 
Please enable Javascript!
Пожалуйста включите Javascript, иначе данный и другие сайты могут работать не корректно! Узнать как включить Javascript можно на Google Support