Categories
Welcome to Music Torrent Tracker - Sound-Park  ι  JOIN US FOR FULL ACCESS  ι  Log In  ι  Forgot your password?

Steve Davis - Correlations (Lossless, Hi Res 2019)

Jazz  Bop
 
Date: 16 april 2019
Added: StasOn11
Views: 1055
  • ARTIST: Steve Davis
  • ALBUM / TITLE: Correlations
  • RELEASE YEAR / DATE: 2019
  • STYLE: Straight-Ahead Jazz, Post-Bop
  • LABEL: © (C) 2019 Smoke Sessions Records
  • DURATION: 01:13:56
  • FILE FORMAT: FLAC, (tracks) 24 bits, 96 KHz
  • QUALITY: Lossless

  • RATING: 10 / 4    
  • VOTE:

  • DOWNLOAD: DOWNLOAD TORRENT
  • СИДЫ:

Torrent description



01. Embarcadero (5:57)
02. Subtlety (8:53)
03. Batista’s Revenge (5:59)
04. Song for My Love (7:05)
05. Newbie (5:27)
06. Peace (7:16)
07. Can’t Complain (6:21)
08. Think on Me (7:01)
09. Blues for Owen (5:39)
10. A Child Is Born (6:18)
11. Inner Glimpse (8:01)

Qobuz

Источник (релизер): Stephenten

Exploration and innovation may be the aspiration of modern jazz, but trombonist Steve Davis' Correlations exemplifies the fact that nothing proves more compelling than the timeless art of gathering a group of musicians who work remarkably well together. A veteran of The Jazz Messengers, One for All, and The Jazztet, Davis has a wealth of experience sharing the stage with multiple horns, essential to this album's sextet. His "get out of the way and let it happen" approach to band leadership pays off well with saxophonist Wayne Escoffery and trumpeter/flugelhornist Joshua Bruneau, who are backed by a rhythm section comprised of pianist Xavier Davis (no relation), bassist Dezron Douglas, and drummer Jonathan Barber.

A little over half the songs on Correlations are originals by Davis. "Subtlety" is a fairly long, meandering piece in which he stretches out to allow time for each horn player to solo, in addition to Xavier Davis who closes out the tune before the final melody is repeated. The group seems to be having genuine fun on the rollicking "Bautista's Revenge," which features a guest appearance by percussionist Cyro Baptista. The album is balanced out by just three ballads, which is expected considering the band's large horn section. Davis dedicated "Song For My Love" to his wife, which features a lush, warm melody echoed by the trombonist throughout the upbeat tune. The second is Horace Silver's much-loved "Peace," which slows to a crawl, and has Barber taking up the brush and cymbals for most of its seven minutes. "A Child Is Born" is positioned as the album's penultimate song. While it doesn't allow the attention to wander too long, the band doesn't do anything particularly memorable with Thad Jones' cherished classic.

George Cables' "Think On Me" is given a well-deserved treatment here. Originally recorded for his 1975 debut "Why Not," it's interesting to hear a large band play one of his classics besides jazz supergroup The Cookers, for whom he plays piano. The addition of horns does the song justice, while the only downside is the loss of Carl Burnette's deft and dextrous drum work on the original, which had to be cleaned out to make room for all three to solo.

It would have been a pleasure to hear more of Dezron Douglas who, possessing a deep, rich sound, is one of the most affecting and underrated bassists in the New York jazz scene, but in a group this size he is largely relegated to a backing role. That role shouldn't be underestimated however; with good speakers his clever plucking can be heard adding depth to every song on the album.

If there's a flaw to be found on Correlations, it's that with so much talent in the studio Steve Davis seems to want to make time for everybody. Unfortunately, this approach does seem to limit the adventurousness they can offer, condensing their solo opportunities into narrower window. There's a smile inducing charm that groups like this have when everything seems to be going right. Correlations' freshly minted sextet is one of the best that jazz has to offer. In a time when many musicians are attempting to relocate the genre's boundaries away from its swinging ancestry, Davis is content to assemble a top-tier band to masterfully realize that guiding principle.


Steve Davis (trombone)
Joshua Bruneau (trumpet)
Wayne Escoffery (tenor sax)
Xavier Davis (piano)
Dezron Douglas (b)
Jonathan Barber (drums)
Cyro Baptista (percussion on “Batista’s Revenge”)


foobar2000 1.4 / Dynamic Range Meter 1.1.1
log date: 2019-04-14 21:58:58

--------------------------------------------------------------------------------
Analyzed: Steve Davis / Correlations
--------------------------------------------------------------------------------

DR Peak RMS Duration Track
--------------------------------------------------------------------------------
DR11 -1.20 dB -14.24 dB 5:57 01-Embarcadero
DR11 -1.20 dB -14.38 dB 8:53 02-Subtlety
DR10 -1.20 dB -12.98 dB 6:00 03-Batista's Revenge
DR11 -1.20 dB -14.07 dB 7:05 04-Song for My Love
DR12 -1.20 dB -14.77 dB 5:27 05-Newbie
DR13 -1.20 dB -17.31 dB 7:16 06-Peace
DR10 -1.20 dB -13.50 dB 6:22 07-Can't Complain
DR11 -1.20 dB -14.73 dB 7:01 08-Think on Me
DR10 -1.20 dB -14.00 dB 5:40 09-Blues for Owen
DR14 -1.20 dB -18.25 dB 6:18 10-A Child Is Born
DR10 -1.20 dB -12.83 dB 8:01 11-Inner Glimpse
--------------------------------------------------------------------------------

Number of tracks: 11
Official DR value: DR11
Samplerate: 96000 Hz
Channels: 2
Bits per sample: 24
Bitrate: 2989 kbps
Codec: FLAC
================================================================================



Comments (2)


17 april 2019
rotihellas   
0 
PR:XCityXXX GBXXX GBПостовХС
В
Л
Х

Thanks!


16 april 2019
Bagdee   
0 
PR:XCityXXX GBXXX GBПостовХС
В
Л
Х

Thank you



 
Please enable Javascript!
Пожалуйста включите Javascript, иначе данный и другие сайты могут работать не корректно! Узнать как включить Javascript можно на Google Support