Categories
Welcome to Music Torrent Tracker - Sound-Park  ι  JOIN US FOR FULL ACCESS  ι  Log In  ι  Forgot your password?

Them / Belfast Gypsies - Them…Belfast Gypsies! (Remastered) (Lossless, Hi Res 1967/2019)

Blues-rock  Other Rock
 
Date: 17 april 2019
Added: StasOn11
Views: 1863
  • ARTIST: Them / Belfast Gypsies
  • ALBUM / TITLE: Them…Belfast Gypsies! (Remastered)
  • RELEASE YEAR / DATE: 1967/2019
  • COUNTRY: United Kingdom
  • STYLE: Blues Rock, Garage Rock
  • LABEL: RevOla Records
  • DURATION: 00:56:10
  • FILE FORMAT: FLAC, (tracks) 24 bits, 44,1 KHz
  • QUALITY: Lossless

  • RATING: 9.9 / 10    
  • VOTE:

  • DOWNLOAD: DOWNLOAD TORRENT

Torrent description



01. Gloria’s Dream (Remastered)
02. The Crazy World Inside Me (Remastered)
03. Midnight Train (Remastered)
04. Aria Of The Fallen Angels (Remastered)
05. It’s All Over Now, Baby Blue (Remastered)
06. People, Let’s Freak Out (Remastered)
07. Boom Boom (Remastered)
08. The Last Will And Testament (Remastered)
09. Portland Town (Remastered)
10. Hey Gyp (Dig The Slowness) (Remastered)
11. Suicide Song (Remastered)
12. Secret Police (Remastered)
13. Portland Town (French EP Mix Remastered)
14. It’s All Over Now, Baby Blue (French EP Mix Remastered)
15. Midnight Train (French EP Mix Remastered)
16. The Gorilla (French EP Mix Remastered)
17. Secret Police (45 Mix Remastered)
18. Gloria’s Dream (45 Mix Remastered)

Qobuz

Источник (релизер): gyji58

Gypsy's self-titled debut LP (released, confusingly, under the title English Gypsy in the U.S.) was the work of a British band extremely influenced by late-'60s Californian folk-psychedelic-rock -- more so than almost any other U.K. group you could name, in fact. Why is that, then, that hardly anyone can name Gypsy these days? It's because the album's extremely derivative of Buffalo Springfield, Crosby, Stills, Nash & Young, and especially Moby Grape, particularly in the vocal harmonies. And it's because, while those are good influences to work from, the songs aren't nearly as good as the best work by the aforementioned acts. Some specialists would cavil that it's unfair to hold secondary bands like Gypsy up to such high standards, and that the music should be judged on its own terms. But let's be straight about it: on this particular platter, the similarities are inescapable. The lead vocals often have the gritty tremble characteristic of numerous Moby Grape tracks; the harmonies on "I Don't Care Do You Mind?" are very much in the early CSNY style; the extended soloing on "Turning Wheel" can't fail to recall Neil Young's "Down by the River"; some of the lyrics on "Standing Alone, Feeling So Bad" sound rather like Buffalo Springfield's "Mr. Soul"; "Pony Ride" is a son (or should that be "grandson"?) of Moby Grape's "Hey Grandma"; etc. It's well-played and well-sung, with some appealing sustained guitar effects, but more originality (and better material) were needed to make something enduring. The 2004 CD reissue on Hux adds the 1971 non-LP single "Changes Comin'"/"Don't Cry on Me," as well as six previously unreleased tracks recorded around the same time. ~ Richie Unterberger


foobar2000 1.3.3 (cdpos.biz) / Dynamic Range Meter 1.1

--------------------------------------------------------------------------------
Analyzed: Them / Belfast Gypsies / Them...Belfast Gypsies!
--------------------------------------------------------------------------------

DR Peak RMS Duration Track
--------------------------------------------------------------------------------
DR10 -3.15 dB -15.25 dB 2:14 01-Gloria's Dream (Remastered)
DR12 -3.26 dB -16.72 dB 3:03 02-The Crazy World Inside Me (Remastered)
DR10 -4.26 dB -16.20 dB 3:31 03-Midnight Train (Remastered)
DR11 -3.45 dB -17.69 dB 3:51 04-Aria Of The Fallen Angels (Remastered)
DR11 -4.36 dB -16.67 dB 3:49 05-It's All Over Now, Baby Blue (Remastered)
DR11 -3.80 dB -16.00 dB 2:31 06-People, Let's Freak Out (Remastered)
DR12 -3.72 dB -17.89 dB 2:27 07-Boom Boom (Remastered)
DR11 -3.14 dB -16.67 dB 4:51 08-The Last Will And Testament (Remastered)
DR10 -3.79 dB -16.42 dB 3:19 09-Portland Town (Remastered)
DR11 -3.82 dB -15.96 dB 2:05 10-Hey Gyp (Dig The Slowness) (Remastered)
DR11 -3.87 dB -16.20 dB 4:13 11-Suicide Song (Remastered)
DR10 -3.45 dB -14.92 dB 2:32 12-Secret Police (Remastered)
DR11 -4.33 dB -16.46 dB 3:40 13-Portland Town (French EP Mix Remastered)
DR11 -4.76 dB -17.49 dB 3:49 14-It's All Over Now, Baby Blue (French EP Mix Remastered)
DR11 -2.97 dB -16.90 dB 3:31 15-Midnight Train (French EP Mix Remastered)
DR11 -4.58 dB -16.15 dB 2:00 16-The Gorilla (French EP Mix Remastered)
DR11 -3.51 dB -16.03 dB 2:39 17-Secret Police (45 Mix Remastered)
DR11 -3.50 dB -16.25 dB 2:15 18-Gloria's Dream (45 Mix Remastered)
--------------------------------------------------------------------------------

Number of tracks: 18
Official DR value: DR11

Samplerate: 44100 Hz
Channels: 2
Bits per sample: 24
Bitrate: 1243 kbps
Codec: FLAC
================================================================================



Comments (5)


21 april 2019
Phantastych   
+1 
PR:XCityXXX GBXXX GBПостовХС
В
Л
Х

Wonderful, thanks


21 april 2019
yuriy75   
0 
PR:XCityXXX GBXXX GBПостовХС
В
Л
Х

никогда не слышал !спасибо за релиз!!!


18 april 2019
alsoundbel   
+1 
PR:XCityXXX GBXXX GBПостовХС
В
Л
Х

muchas gracias


17 april 2019
aleox16   
+2 
PR:XCityXXX GBXXX GBПостовХС
В
Л
Х

gracias


17 april 2019
Bagdee   
+3 
PR:XCityXXX GBXXX GBПостовХС
В
Л
Х

Thank you



 

Please enable Javascript!
Пожалуйста включите Javascript, иначе данный и другие сайты могут работать не корректно! Узнать как включить Javascript можно на Google Support