Categories
Welcome to Music Torrent Tracker - Sound-Park  ι  JOIN US FOR FULL ACCESS  ι  Log In  ι  Forgot your password?

Ji Yoon, Orchestra of Nationaltheater Mannheim - Bjork: Vespertine (Lossless, Hi Res 2019)

Classical
 
Ji Yoon, Orchestra of Nationaltheater Mannheim - Bjork: Vespertine (Lossless, Hi Res 2019)
Ji Yoon, Orchestra of Nationaltheater Mannheim - Bjork: Vespertine (Lossless, Hi Res 2019)
Date: 17 april 2019
Added: StasOn11
Views: 571
  • ARTIST: Ji Yoon, Orchestra of Nationaltheater Mannheim
  • ALBUM / TITLE: Björk: Vespertine - A Pop Album as an Opera (Live)
  • RELEASE YEAR / DATE: 2019
  • STYLE: Classical
  • LABEL: © (C) 2019 Oehms Classics
  • DURATION: 01:17:42
  • FILE FORMAT: FLAC, (tracks) 24 bits, 48 KHz
  • QUALITY: Lossless

  • RATING: 10 / 2    
  • VOTE:

  • DOWNLOAD: DOWNLOAD TORRENT

Torrent description



01-22. Björk: Björk’s Vespertine A Pop Album as an Opera 1:17:40

Qobuz

Источник (релизер): ipokemongo

Orchestra of Nationaltheater Mannheim, Children's Choir of Nationaltheater Mannheim, Women's Choir of Nationaltheater Mannheim
Matthew Toogood
Ji Yoon (soprano), Aki Hashimoto (soprano), Simon Oesch (boy soprano), Raymond Ayers (baritone)



foobar2000 1.4.2 / Dynamic Range Meter 1.1.1
log date: 2019-04-15 18:59:59

--------------------------------------------------------------------------------
Analyzed: Aki Hashimoto / Björk: Vespertine - A Pop Album as an Opera (Live) (1)
Ji Yoon / Björk: Vespertine - A Pop Album as an Opera (Live) (2-11)
Orchestra of Nationaltheater Mannheim / Björk: Vespertine - A Pop Album as an Opera (Live) (12-17)
Raymond Ayers / Björk: Vespertine - A Pop Album as an Opera (Live) (18)
Simon Oesch / Björk: Vespertine - A Pop Album as an Opera (Live) (19-20)
Women's Choir of Nationaltheater Mannheim / Björk: Vespertine - A Pop Album as an Opera (Live) (21-22)
--------------------------------------------------------------------------------

DR Peak RMS Duration Track
--------------------------------------------------------------------------------
DR13 -7.83 dB -26.07 dB 4:43 12-Vespertine: Aurora (Live)
DR13 -4.28 dB -22.81 dB 5:29 02-Vespertine: Hidden Place (Live)
DR13 -8.09 dB -28.07 dB 5:31 03-Vespertine: Cocoon (Live)
DR13 -5.56 dB -24.18 dB 4:39 05-Vespertine: It's Not up to You (Live)
DR13 -6.53 dB -25.16 dB 5:33 07-Vespertine: Undo (Live)
DR15 -3.39 dB -24.82 dB 6:45 09-Vespertine: Pagan Poetry (Live)
DR11 -8.87 dB -26.07 dB 2:44 15-Vespertine: Sun in My Mouth (Live)
DR15 -0.79 dB -22.92 dB 5:34 17-Vespertine: Heirloom (Live)
DR13 -8.63 dB -28.09 dB 5:47 19-Vespertine: Harm of Will (Live)
DR11 -17.66 dB -35.57 dB 1:01 20-Vespertine: The Birth of Aphrodite (Live)
DR14 -1.61 dB -21.15 dB 5:33 21-Vespertine: Unison (Live)
DR12 -17.66 dB -36.17 dB 3:05 01-Vespertine: Introduction "Chaos" (Live)
DR13 -13.79 dB -33.02 dB 1:20 04-Vespertine: The Birth of Uranos (Live)
DR10 -22.68 dB -38.89 dB 0:57 08-Vespertine: The Titans (Live)
DR10 -23.50 dB -42.37 dB 1:52 10-Vespertine: The Sickle (Live)
DR11 -15.64 dB -33.07 dB 2:56 11-Vespertine: Frosti (Live)
DR14 -3.84 dB -28.22 dB 1:52 13-Vespertine: The Emasculation (Live)
DR15 -0.50 dB -25.98 dB 5:25 14-Vespertine: An Echo, a Stain (Live)
DR9 -24.82 dB -38.31 dB 0:48 06-Vespertine: Uranos Covers the Earth (Live)
DR5 -2.03 dB -30.69 dB 1:38 18-Vespertine: The Blood of Uranos (Live)
DR10 -19.29 dB -35.35 dB 2:51 16-Vespertine: The Illuminated Man (Live)
DR11 -13.36 dB -31.22 dB 1:49 22-Vespertine: The Golden Age (Live)
--------------------------------------------------------------------------------

Number of tracks: 22
Official DR value: DR12

Samplerate: 48000 Hz
Channels: 2
Bits per sample: 24
Bitrate: 1206 kbps
Codec: FLAC
================================================================================



Comments (1)


18 april 2019
rotihellas   
0 
PR:XCityXXX GBXXX GBПостовХС
В
Л
Х

Thanks!



 

Please enable Javascript!
Пожалуйста включите Javascript, иначе данный и другие сайты могут работать не корректно! Узнать как включить Javascript можно на Google Support