Categories
Welcome to Music Torrent Tracker - Sound-Park  ι  JOIN US FOR FULL ACCESS  ι  Log In  ι  Forgot your password?

Oslo Philharmonic Chamber Group - Clarinet Trios: Schumann; Bruch; Mozart (Lossless, Hi Res 2019)

Classical
 
Date: 17 april 2019
Added: StasOn11
Views: 647
  • ARTIST: Oslo Philharmonic Chamber Group
  • ALBUM / TITLE: Clarinet Trios: Schumann; Bruch; Mozart
  • RELEASE YEAR / DATE: 2019
  • STYLE: Classical
  • LABEL: LAWO
  • DURATION: 01:08:06
  • FILE FORMAT: FLAC, (tracks) 24 bits, 192 KHz
  • QUALITY: Lossless

  • RATING: 10 / 6    
  • VOTE:

  • DOWNLOAD: DOWNLOAD TORRENT

Torrent description



01-04. Schumann: Märchenerzählungen (4) for Clarinet, Viola & Piano, Op. 132 14:40
05-12. Bruch: Acht Stücke Op. 83 34:39
13-15. Mozart: Trio K. 498 18:46

Prestomusic

Источник (релизер): ipokemongo




foobar2000 1.4.2 / Dynamic Range Meter 1.1.1
log date: 2019-04-16 18:55:05

--------------------------------------------------------------------------------
Analyzed: Oslo Philharmonic Chamber Group / Clarinet Trios: Schumann; Bruch; Mozart
--------------------------------------------------------------------------------

DR Peak RMS Duration Track
--------------------------------------------------------------------------------
DR11 -6.86 dB -21.54 dB 2:54 01-Märchenerzählungen Op. 132: I. Lebhaft, nicht zu schnell
DR12 -1.37 dB -17.93 dB 3:15 02-Märchenerzählungen Op. 132: II. Lebhaft und sehr markiert
DR11 -8.61 dB -23.09 dB 3:53 03-Märchenerzählungen Op. 132: III. Ruhiges Tempo, mit zartem Ausdruck
DR13 -1.95 dB -18.13 dB 4:38 04-Märchenerzählungen Op. 132: IV. Lebhaft, sehr markiert
DR11 -7.57 dB -23.15 dB 3:49 05-Acht Stücke Op. 83: I. Andante
DR11 -2.74 dB -19.49 dB 2:28 06-Acht Stücke Op. 83: II. Allegro con moto
DR12 -4.91 dB -22.20 dB 6:31 07-Acht Stücke Op. 83: III. Andante con moto
DR12 -0.71 dB -16.46 dB 3:34 08-Acht Stücke Op. 83: IV. Allegro agitato
DR12 -1.88 dB -21.31 dB 4:25 09-Acht Stücke Op. 83: V. Andante
DR12 -3.70 dB -22.37 dB 5:30 10-Acht Stücke Op. 83: VI. Andante con moto
DR13 -1.89 dB -19.10 dB 3:21 11-Acht Stücke Op. 83: VII. Allegro vivace, ma non troppo
DR11 -3.23 dB -19.52 dB 5:05 12-Acht Stücke Op. 83: VIII. Moderato
DR12 -5.03 dB -22.01 dB 5:15 13-Trio K. 498: I. Andante
DR13 -2.45 dB -20.66 dB 5:21 14-Trio K. 498: II. Menuetto
DR14 -2.04 dB -20.67 dB 8:11 15-Trio K. 498: III. Rondeaux allegretto
--------------------------------------------------------------------------------

Number of tracks: 15
Official DR value: DR12

Samplerate: 192000 Hz
Channels: 2
Bits per sample: 24
Bitrate: 4841 kbps
Codec: FLAC
================================================================================



Comments (3)


19 april 2019
edkarlos   
0 
PR:XCityXXX GBXXX GBПостовХС
В
Л
Х

Great Great. Sensational very greatful


18 april 2019
alsoundbel   
+1 
PR:XCityXXX GBXXX GBПостовХС
В
Л
Х

muchas gracias


18 april 2019
rotihellas   
+1 
PR:XCityXXX GBXXX GBПостовХС
В
Л
Х

Thanks!



 

Please enable Javascript!
Пожалуйста включите Javascript, иначе данный и другие сайты могут работать не корректно! Узнать как включить Javascript можно на Google Support