Categories
Welcome to Music Torrent Tracker - Sound-Park  ι  JOIN US FOR FULL ACCESS  ι  Log In  ι  Forgot your password?

Ensemble Correspondances, Sebastien Dauce - Charpentier: Histoires sacrees (Lossless, Hi Res 2019)

Classical
 
Ensemble Correspondances, Sebastien Dauce - Charpentier: Histoires sacrees (Lossless, Hi Res 2019)
Ensemble Correspondances, Sebastien Dauce - Charpentier: Histoires sacrees (Lossless, Hi Res 2019)
Date: 17 april 2019
Added: StasOn11
Views: 795
  • ARTIST: Ensemble Correspondances, Sebastien Dauce
  • ALBUM / TITLE: Charpentier: Histoires sacrees
  • RELEASE YEAR / DATE: 2019
  • STYLE: Classical
  • LABEL: Harmonia Mundi
  • DURATION: 02:40:20
  • FILE FORMAT: FLAC, (tracks) 24 bits, 88,2 KHz
  • QUALITY: Lossless

  • RATING: 9.75 / 4    
  • VOTE:

  • DOWNLOAD: DOWNLOAD TORRENT
  • СИДЫ:

Torrent description



Marc-Antoine Charpentier (1643-1704) :
01-10. Cæcilia, virgo et martyr octo vocibus, H. 397 29:54
11-13. Motet pour les Trépassés 8:51
14. Dialogus inter Magdalenam et Jesum, H. 423: Hei, hei mihi infelix Magdalena 4:11
15-32. Judith sive Bethulia liberata H. 391 39:42
33-48. Mors Saülis et Jonathae H 403 36:13
49. Prelude pour Mementote peccatores, H. 425a 1:18
50-54. Dialogus inter Christum et peccatores, H. 425 8:44
55-56. Dialogus inter Christum et homines H. 417 9:03
57-61. Élévation, H. 408 10:58
62-65. Pestis mediolanensis, H. 398 11:22

Prestomusic

Источник (релизер): ipokemongo


foobar2000 1.4.2 / Dynamic Range Meter 1.1.1
log date: 2019-04-15 11:34:37

--------------------------------------------------------------------------------
Analyzed: Ensemble Correspondances & Sébastien Daucé / Charpentier: Histoires sacrées
--------------------------------------------------------------------------------

DR Peak RMS Duration Track
--------------------------------------------------------------------------------
DR10 -7.16 dB -19.66 dB 1:28 01-Cæcilia, virgo et martyr octo vocibus, H. 397, Prima pars: Præludium - Est secretum, valeriane (Cæcilia)
DR12 -1.08 dB -18.15 dB 3:47 02-Cæcilia, virgo et martyr octo vocibus, H. 397, Prima pars: Nullus audit, nullus videt (Valerianus, Cæcilia) - Et aquis lustratibus (Chorus fidelium)
DR13 -2.12 dB -19.93 dB 4:38 03-Cæcilia, virgo et martyr octo vocibus, H. 397, Prima pars: Acceptis autem ab Angelo flosculis (Historicus, Cæcilia, Valerianus, Tiburtius)
DR12 -1.97 dB -16.86 dB 1:48 04-Cæcilia, virgo et martyr octo vocibus, H. 397, Prima pars: O Christi fidem profitentium (Tutti)
DR9 -6.67 dB -20.69 dB 1:09 05-Cæcilia, virgo et martyr octo vocibus, H. 397, Secunda pars: Præludium
DR13 -1.20 dB -18.65 dB 5:03 06-Cæcilia, virgo et martyr octo vocibus, H. 397, Secunda pars: Cum autem Valeriani et Tiburtii (Historicus, Almachius, Cæcilia)
DR12 -5.86 dB -24.54 dB 1:41 07-Cæcilia, virgo et martyr octo vocibus, H. 397, Secunda pars: Ecce, ecce mihi Jesu (Cæcilia)
DR10 -2.12 dB -18.39 dB 1:55 08-Cæcilia, virgo et martyr octo vocibus, H. 397, Secunda pars: Heu, heu, nos dolentes (Chorus fidelium, Angeli)
DR10 -3.24 dB -16.87 dB 1:45 09-Cæcilia, virgo et martyr octo vocibus, H. 397, Secunda pars: Cur ploratis fideles (Angeli, Chorus fidelium)
DR13 -1.13 dB -17.47 dB 6:47 10-Cæcilia, virgo et martyr octo vocibus, H. 397, Secunda pars: Guay - Nolite flere fideles (Angeli, Chorus fidelium, tutti)
DR11 -3.98 dB -18.44 dB 2:34 11-Motet pour les trépassés à 8, H. 311: Prélude - Miseremini mei
DR11 -3.65 dB -19.49 dB 2:32 12-Motet pour les trépassés à 8, H. 311: Heu, mihi Domine
DR11 -2.36 dB -18.08 dB 3:46 13-Motet pour les trépassés à 8, H. 311: Ritournelle - Ah, ah pœnis crucior
DR13 -8.34 dB -25.19 dB 4:11 14-Dialogus inter Magdalenam et Jesum, H. 423: Hei, hei mihi infelix Magdalena
DR11 -2.75 dB -16.23 dB 0:28 15-Judith, sive Bethulia liberata, H. 391, Première partie: Stabat Holofernes super montes (Chorus Assyriorum)
DR11 -3.99 dB -19.35 dB 1:00 16-Judith, sive Bethulia liberata, H. 391, Première partie: Filii Israel (Tres duces Assyrii)
DR11 -4.07 dB -19.56 dB 2:52 17-Judith, sive Bethulia liberata, H. 391, Première partie: Et placuerunt (Historicus ex Assyriis, Historicus ex filiis Israel, Tres viri Israelitæ, Historicus ex Israel)
DR12 -2.25 dB -17.90 dB 2:23 18-Judith, sive Bethulia liberata, H. 391, Première partie: Peccavimus, Domine (Filii Israel)
DR12 -5.16 dB -22.55 dB 1:51 19-Judith, sive Bethulia liberata, H. 391, Première partie: Et, cum his clamoribus (Historicus ex filiis Israel, Ozias)
DR11 -4.48 dB -19.56 dB 0:28 20-Judith, sive Bethulia liberata, H. 391, Première partie: Quod cum audisset (Historici ex filiis Israel)
DR11 -4.38 dB -19.85 dB 2:14 21-Judith, sive Bethulia liberata, H. 391, Première partie: Quod est hoc verbum (Judith)
DR12 -2.00 dB -19.65 dB 3:07 22-Judith, sive Bethulia liberata, H. 391, Première partie: Vera sunt omnia (Ozias, Judith, Chorus ex Israel, trois voix seules)
DR13 -0.86 dB -19.38 dB 3:47 23-Judith, sive Bethulia liberata, H. 391, Première partie: Nocte autem sequetem (Historicus ex Israel, Judith)
DR11 -8.64 dB -25.94 dB 0:51 24-Judith, sive Bethulia liberata, H. 391, Première partie: Post hæc Judith deposuit (Historicus ex Israel)
DR10 -10.20 dB -24.88 dB 2:56 25-Judith, sive Bethulia liberata, H. 391, Première partie: La nuict
DR12 -1.77 dB -17.48 dB 2:36 26-Judith, sive Bethulia liberata, H. 391, Seconde partie: Cum autem Judith descenderat montem (Ancilla, Duo exploratores ex Assyriis, Judith, Chorus Assyriorum)
DR13 -1.23 dB -19.35 dB 6:03 27-Judith, sive Bethulia liberata, H. 391, Seconde partie: Æquo animo esto (Holofernes, Judith)
DR11 -3.39 dB -18.70 dB 0:49 28-Judith, sive Bethulia liberata, H. 391, Seconde partie: Et ingressa Judith (Historici ex Assyriis)
DR11 -5.06 dB -20.05 dB 1:41 29-Judith, sive Bethulia liberata, H. 391, Seconde partie: Ut autem sero factum est (Ancilla)
DR12 -5.65 dB -20.73 dB 0:44 30-Judith, sive Bethulia liberata, H. 391, Seconde partie: Aperite portas, custodes fideles (Judith)
DR11 -2.66 dB -17.26 dB 1:40 31-Judith, sive Bethulia liberata, H. 391, Seconde partie: Et cum audissent filii Israel (Chorus filiorum Israel)
DR13 -1.70 dB -17.92 dB 4:22 32-Judith, sive Bethulia liberata, H. 391, Seconde partie: Laudate Dominum Deum nostrum (Judith, Chœur)
DR11 -5.75 dB -20.63 dB 0:29 33-Mors Saülis et Jonathæ, H. 403: Rumor bellicus
DR12 -3.77 dB -18.97 dB 1:28 34-Mors Saülis et Jonathæ, H. 403, Première partie: Cum essent congregata (Chorus)
DR12 -6.83 dB -23.19 dB 2:27 35-Mors Saülis et Jonathæ, H. 403, Première partie: O mulier, suscita mihi (Saül, Maga)
DR14 -2.77 dB -22.65 dB 5:38 36-Mors Saülis et Jonathæ, H. 403, Première partie: Première symphonie [de l'enchantement] - Æther umbrosus nigro velamine (Maga) Per hanc virgam in terram trahentem (Maga) - [Seconde] symphonie de l'enchantement - Ecquid ad surdos (Maga)
DR10 -6.71 dB -22.38 dB 0:39 37-Mors Saülis et Jonathæ, H. 403, Première partie: Cumque Samuel volente Deo (Duo ex choro)
DR12 -3.27 dB -18.96 dB 3:15 38-Mors Saülis et Jonathæ, H. 403, Première partie: Surge Saül et responde mihi ! (Samuel, Saül)
DR12 -2.68 dB -19.06 dB 1:49 39-Mors Saülis et Jonathæ, H. 403, Seconde partie: Cecidit repente Saül (Chorus)
DR13 -4.07 dB -21.89 dB 1:41 40-Mors Saülis et Jonathæ, H. 403, Seconde partie: Tolle, quæso, tolle (Saül, Miles)
DR13 -1.30 dB -19.24 dB 1:57 41-Mors Saülis et Jonathæ, H. 403, Seconde partie: Age cito (Saül, chorus)
DR12 -4.99 dB -21.55 dB 0:58 42-Mors Saülis et Jonathæ, H. 403, Seconde partie: Cumque miles invitus (Tres ex choro)
DR12 -1.99 dB -20.44 dB 2:04 43-Mors Saülis et Jonathæ, H. 403, Seconde partie: Quisnam es tu ? (David, Miles)
DR11 -2.80 dB -17.38 dB 2:05 44-Mors Saülis et Jonathæ, H. 403, Seconde partie: O sors ! (Chorus sans violons)
DR15 -2.19 dB -22.80 dB 3:01 45-Mors Saülis et Jonathæ, H. 403, Seconde partie: Sed tu, unde scis quod Saül (David, Miles)
DR13 -5.03 dB -23.40 dB 4:34 46-Mors Saülis et Jonathæ, H. 403, Seconde partie: Doleo super te (David)
DR12 -3.16 dB -21.99 dB 0:51 47-Mors Saülis et Jonathæ, H. 403, Seconde partie: David autem conversus (Duo ex choro, David)
DR12 -2.73 dB -19.13 dB 3:23 48-Mors Saülis et Jonathæ, H. 403, Seconde partie: Montes Gelboe (Chorus ultimus)
DR10 -10.85 dB -23.14 dB 1:19 49-Prelude pour Mementote peccatores, H. 425a
DR11 -5.15 dB -20.03 dB 1:18 50-Dialogus inter Christum et peccatores, H. 425: Mementote peccatores (Christus)
DR12 -3.71 dB -20.55 dB 2:20 51-Dialogus inter Christum et peccatores, H. 425: Vos autem (Christus, à 3)
DR12 -5.08 dB -21.33 dB 1:32 52-Dialogus inter Christum et peccatores, H. 425: Quis capiti meo dabit aquam (Premier dessus)
DR12 -8.19 dB -23.90 dB 1:36 53-Dialogus inter Christum et peccatores, H. 425: Heu, stupiditas cordis mei (Deuxième dessus)
DR10 -4.00 dB -19.76 dB 2:00 54-Dialogus inter Christum et peccatores, H. 425: Ah, cor durum, ah cor ingratum (à 3)
DR14 -1.70 dB -20.53 dB 4:39 55-Dialogus inter Christum et homines H. 417: Prélude - Homo Deus fecit cœnam magnam
DR12 -5.24 dB -21.39 dB 4:24 56-Dialogus inter Christum et homines H. 417: O panis Deus
DR10 -8.93 dB -23.50 dB 1:47 57-Élévation, H. 408: [Symphonie]
DR12 -5.27 dB -20.91 dB 1:31 58-Élévation, H. 408: Famem meam quis replebit (Esuriens, Christus, Sitiens)
DR11 -7.13 dB -22.03 dB 1:53 59-Élévation, H. 408: Panem cœlestem habeo (Christus)
DR12 -3.77 dB -21.03 dB 2:51 60-Élévation, H. 408: Esurio, sitio (Esuriens, Sitiens, Christus)
DR12 -3.60 dB -20.66 dB 3:01 61-Élévation, H. 408: O panis angelorum (Esuriens, Sitiens, Christus)
DR12 -2.11 dB -19.16 dB 6:09 62-Pestis mediolanensis, H. 398: Prélude pour Horrenda pestis - Horrenda pestis Mediolanum vastabit
DR11 -1.44 dB -14.47 dB 0:41 63-Pestis mediolanensis, H. 398: Afflictionem miseri populi ut audivit (grand chœur)
DR11 -2.79 dB -20.39 dB 2:07 64-Pestis mediolanensis, H. 398: Cantilena. Infirmos languentes solatur
DR11 -1.85 dB -15.69 dB 2:26 65-Pestis mediolanensis, H. 398: Hymnum ergo cantemus (grand chœur)
--------------------------------------------------------------------------------

Number of tracks: 65
Official DR value: DR12

Samplerate: 88200 Hz
Channels: 2
Bits per sample: 24
Bitrate: 2463 kbps
Codec: FLAC
================================================================================



Comments (4)


12 may 2019
Gaphofone   
0 
PR:XCityXXX GBXXX GBПостовХС
В
Л
Х

Merci beaucoup!


19 april 2019
edkarlos   
0 
PR:XCityXXX GBXXX GBПостовХС
В
Л
Х

Opera, The Best. Gretful Job


18 april 2019
rotihellas   
0 
PR:XCityXXX GBXXX GBПостовХС
В
Л
Х

Thanks!


18 april 2019
HATRIK   
0 
PR:XCityXXX GBXXX GBПостовХС
В
Л
Х

ДЯКУЮ!!!



 

Please enable Javascript!
Пожалуйста включите Javascript, иначе данный и другие сайты могут работать не корректно! Узнать как включить Javascript можно на Google Support