Categories
Welcome to Music Torrent Tracker - Sound-Park  ι  JOIN US FOR FULL ACCESS  ι  Log In  ι  Forgot your password?

Sarasa Ensemble, Dominique Labelle - Boccherini (Lossless, Hi Res 2019)

Classical
 
Sarasa Ensemble, Dominique Labelle - Boccherini (Lossless, Hi Res 2019)
Sarasa Ensemble, Dominique Labelle - Boccherini (Lossless, Hi Res 2019)
Date: 17 april 2019
Added: StasOn11
Views: 1165
  • ARTIST: Sarasa Ensemble, Dominique Labelle
  • ALBUM / TITLE: Boccherini: Stabat Mater, G. 532, String Quartet, Op. 52 No. 3 & String Quintet, Op. 42 No. 1
  • RELEASE YEAR / DATE: 2019
  • STYLE: Classical
  • LABEL: Naxos
  • DURATION: 01:19:01
  • FILE FORMAT: FLAC, (tracks) 24 bits, 88,2 KHz
  • QUALITY: Lossless

  • RATING: 10 / 5    
  • VOTE:

  • DOWNLOAD: DOWNLOAD TORRENT
  • СИДЫ:

Torrent description



Luigi Boccherini (1743-1805) :
01-04. String Quartet in G major, Op. 52, No. 3, G234 19:19
05-15. Stabat Mater (1st version, 1781, for soprano & string orchestra), G532 40:09 - Dominique Labelle (soprano)
16-19. String Quintet Op. 42 No. 1 in F minor, G348 19:32

Prostudiomasters

Источник (релизер): ipokemongo



foobar2000 1.4.2 / Dynamic Range Meter 1.1.1
log date: 2019-04-15 11:35:59

--------------------------------------------------------------------------------
Analyzed: Dominique Labelle / Boccherini: Stabat Mater, G. 532, String Quartet, Op. 52 No. 3 & String Quintet, Op. 42 No. 1 (1-11)
Sarasa Ensemble / Boccherini: Stabat Mater, G. 532, String Quartet, Op. 52 No. 3 & String Quintet, Op. 42 No. 1 (12-19)
--------------------------------------------------------------------------------

DR Peak RMS Duration Track
--------------------------------------------------------------------------------
DR17 -4.88 dB -28.83 dB 4:41 05-Stabat Mater, G. 532 (1781 Version): I. Stabat Mater Dolorosa
DR14 -4.26 dB -25.76 dB 2:21 06-Stabat Mater, G. 532 (1781 Version): II. Cujus Animam Gementem
DR13 -3.61 dB -21.90 dB 2:58 07-Stabat Mater, G. 532 (1781 Version): III. Quae Moerebat et Dolebat
DR11 -11.45 dB -32.81 dB 1:24 08-Stabat Mater, G. 532 (1781 Version): IV. Quis Est Homo
DR15 -3.21 dB -25.42 dB 4:09 09-Stabat Mater, G. 532 (1781 Version): V. Pro Peccatis Suae Gentis
DR15 -3.40 dB -25.66 dB 6:31 10-Stabat Mater, G. 532 (1781 Version): VI. Eja, Mater, Fons Amoris
DR16 -0.46 dB -22.39 dB 4:38 11-Stabat Mater, G. 532 (1781 Version): VII. Tui Nati Vulnerate
DR13 -4.70 dB -25.57 dB 4:40 12-Stabat Mater, G. 532 (1781 Version): VIII. Virgo Virginum Praeclara
DR13 -3.51 dB -24.93 dB 2:40 13-Stabat Mater, G. 532 (1781 Version): IX. Fac ut Portem Christi Mortem
DR12 -1.95 dB -20.42 dB 2:26 14-Stabat Mater, G. 532 (1781 Version): X. Fac Me Plagis Vulnerari
DR16 -3.61 dB -25.78 dB 3:47 15-Stabat Mater, G. 532 (1781 Version): XI. Quando Corpus Morietur
DR14 -9.73 dB -29.40 dB 8:14 01-String Quartet in G Major, Op. 52 No. 3, G. 234: I. Allegretto con moto
DR14 -13.71 dB -31.63 dB 3:11 02-String Quartet in G Major, Op. 52 No. 3, G. 234: II. Minuetto
DR14 -15.06 dB -35.49 dB 2:41 03-String Quartet in G Major, Op. 52 No. 3, G. 234: III. Adagio
DR14 -11.33 dB -29.98 dB 5:16 04-String Quartet in G Major, Op. 52 No. 3, G. 234: IV. Allegro giusto
DR13 -8.03 dB -26.39 dB 6:08 16-String Quintet in F Minor, Op. 42 No. 1, G. 348: I. Allegro moderato assai
DR12 -8.32 dB -26.18 dB 3:04 17-String Quintet in F Minor, Op. 42 No. 1, G. 348: II. Minuetto con moto
DR14 -4.51 dB -27.28 dB 5:18 18-String Quintet in F Minor, Op. 42 No. 1, G. 348: III. Adagio cantabile
DR13 -8.24 dB -26.88 dB 5:04 19-String Quintet in F Minor, Op. 42 No. 1, G. 348: IV. Rondeau. Allegro giusto
--------------------------------------------------------------------------------

Number of tracks: 19
Official DR value: DR14

Samplerate: 88200 Hz
Channels: 2
Bits per sample: 24
Bitrate: 2299 kbps
Codec: FLAC
================================================================================



Comments (5)


20 april 2019
patatita2   
0 
PR:XCityXXX GBXXX GBПостовХС
В
Л
Х

thanks


19 april 2019
woollies66   
0 
PR:XCityXXX GBXXX GBПостовХС
В
Л
Х

Thanx


19 april 2019
edkarlos   
0 
PR:XCityXXX GBXXX GBПостовХС
В
Л
Х

I Love Classical Music
thanks


18 april 2019
povadencko77   
0 
PR:XCityXXX GBXXX GBПостовХС
В
Л
Х

Спасибо !!!!


18 april 2019
rotihellas   
+1 
PR:XCityXXX GBXXX GBПостовХС
В
Л
Х

Thanks!



 

Please enable Javascript!
Пожалуйста включите Javascript, иначе данный и другие сайты могут работать не корректно! Узнать как включить Javascript можно на Google Support