Categories
Welcome to Music Torrent Tracker - Sound-Park  ι  JOIN US FOR FULL ACCESS  ι  Log In  ι  Forgot your password?

Benjamin Alard - J.S. Bach: Complete Keyboard Edition, Vol. 2.2 (Lossless, Hi Res 2019)

Classical
 
Date: 17 april 2019
Added: StasOn11
Views: 1017
  • ARTIST: Benjamin Alard
  • ALBUM / TITLE: J.S. Bach: Complete Keyboard Edition, Vol. 2.2
  • RELEASE YEAR / DATE: 2019
  • STYLE: Classical
  • LABEL: Harmonia Mundi
  • DURATION: 02:22:07
  • FILE FORMAT: FLAC, (tracks) 24 bits, 88,2 KHz
  • QUALITY: Lossless

  • RATING: 10 / 3    
  • VOTE:

  • DOWNLOAD: DOWNLOAD TORRENT
  • СИДЫ:

Torrent description



Johann Sebastian Bach (1685-1750)
01. Nun freut euch, lieben Christen g'mein, BuxWV 210 14:31
02. Herr Christ, der einig Gottes Sohn, BWV Anh. 55 02:22
03. Wie schön leuchtet der Morgenstern, BWV 739 04:50
04. Fuge in B Minor, P. 141 02:46
05. Ach Herr, mich armen Sünder, BWV 742: Poco adagio 02:11
06. Fuge über ein Thema von Arcangelo Corelli, BWV 579 05:24
07. Christ lag in Todesbanden, BWV 718 04:57
08. Fuge in G Major, BWV 577 03:43
09. O Gott, du frommer Gott, BWV 767 16:07
10. Präludium und Fuge in E Major, BWV 566 10:44

11. Toccata in D Major, BWV 912a 12:22
12. Jesu, meines Lebens Leben, BWV 1107 01:44
13. Kyrie Gott Vater in Ewigkeit 02:44
14. Liebster Jesu, wir sind hier, BWV 754 03:24
15. Fantasia super Valet will ich dir geben, BWV 735a 03:42
16. Fuge in G Minor, BWV 578 02:56
17. Fuge über ein Thema von Giovanni Legrenzi in C Minor, BWV 574b 06:17
18. Fuge in C Minor, BWV 575 04:16
19. An Wasserflüssen Babylon 18:42
20. Präludium in A Minor, BWV 569 05:19
21. Ein feste Burg ist unser Gott, BWV 720 03:14
22. Präludium und Fuge in D Major, BWV 532a 09:52

Prostudiomasters

Источник (релизер): ipokemongo

foobar2000 1.4.2 / Dynamic Range Meter 1.1.1
log date: 2019-04-11 21:19:18

--------------------------------------------------------------------------------
Analyzed: Benjamin Alard / J.S. Bach: Complete Keyboard Edition, Vol. 2.1
--------------------------------------------------------------------------------

DR Peak RMS Duration Track
--------------------------------------------------------------------------------
DR13 -2.08 dB -20.05 dB 14:32 01-Nun freut euch, lieben Christen g'mein, BuxWV 210
DR9 -11.61 dB -23.51 dB 2:22 02-Herr Christ, der einig Gottes Sohn, BWV Anh. 55
DR10 -8.01 dB -22.14 dB 4:51 03-Wie schön leuchtet der Morgenstern, BWV 739
DR10 -9.97 dB -22.89 dB 2:46 04-Fuge in B Minor, P. 141
DR9 -16.05 dB -27.78 dB 2:11 05-Ach Herr, mich armen Sünder, BWV 742: Poco adagio
DR10 -9.82 dB -22.08 dB 5:24 06-Fuge über ein Thema von Arcangelo Corelli, BWV 579
DR11 -4.53 dB -19.77 dB 4:58 07-Christ lag in Todesbanden, BWV 718
DR12 -5.26 dB -19.13 dB 3:43 08-Fuge in G Major, BWV 577
DR13 -3.79 dB -22.83 dB 16:07 09-O Gott, du frommer Gott, BWV 767
DR12 -0.60 dB -17.62 dB 10:45 10-Präludium und Fuge in E Major, BWV 566
DR14 -0.20 dB -18.84 dB 12:23 11-Toccata in D Major, BWV 912a
DR10 -4.74 dB -19.61 dB 1:45 12-Jesu, meines Lebens Leben, BWV 1107
DR10 -6.17 dB -18.58 dB 2:44 13-Kyrie Gott Vater in Ewigkeit
DR11 -11.83 dB -24.57 dB 3:25 14-Liebster Jesu, wir sind hier, BWV 754
DR10 -4.70 dB -18.55 dB 3:43 15-Fantasia super Valet will ich dir geben, BWV 735a
DR10 -8.51 dB -21.02 dB 2:56 16-Fuge in G Minor, BWV 578
DR12 -4.81 dB -20.26 dB 6:18 17-Fuge über ein Thema von Giovanni Legrenzi in C Minor, BWV 574b
DR11 -6.74 dB -20.92 dB 4:16 18-Fuge in C Minor, BWV 575
DR12 -4.35 dB -20.70 dB 18:42 19-An Wasserflüssen Babylon
DR11 -1.55 dB -15.63 dB 5:19 20-Präludium in A Minor, BWV 569
DR11 -4.70 dB -19.55 dB 3:15 21-Ein feste Burg ist unser Gott, BWV 720
DR13 -2.39 dB -18.74 dB 9:53 22-Präludium und Fuge in D Major, BWV 532a
--------------------------------------------------------------------------------

Number of tracks: 22
Official DR value: DR11

Samplerate: 88200 Hz
Channels: 2
Bits per sample: 24
Bitrate: 2198 kbps
Codec: FLAC
================================================================================



Comments (2)


19 april 2019
edkarlos   
+1 
PR:XCityXXX GBXXX GBПостовХС
В
Л
Х

Magnific... gracias caro mio


18 april 2019
rotihellas   
+1 
PR:XCityXXX GBXXX GBПостовХС
В
Л
Х

Thanks!



 

Please enable Javascript!
Пожалуйста включите Javascript, иначе данный и другие сайты могут работать не корректно! Узнать как включить Javascript можно на Google Support