Categories
Welcome to Music Torrent Tracker - Sound-Park  ι  JOIN US FOR FULL ACCESS  ι  Log In  ι  Forgot your password?

Christopher Park - Delen R. Schumann: Piano Works (Lossless, Hi Res 2019)

Classical
 
Christopher Park - Delen R. Schumann: Piano Works (Lossless, Hi Res 2019)
Christopher Park - Delen R. Schumann: Piano Works (Lossless, Hi Res 2019)
Date: 17 april 2019
Added: StasOn11
Views: 633
  • ARTIST: Christopher Park
  • ALBUM / TITLE: Delen R. Schumann: Piano Works
  • RELEASE YEAR / DATE: 2019
  • STYLE: Classical
  • LABEL: © (C) 2019 Oehms Classics
  • DURATION: 01:01:32
  • FILE FORMAT: FLAC, (tracks) 24 bits, 96 KHz
  • QUALITY: Lossless

  • RATING: 10 / 3    
  • VOTE:

  • DOWNLOAD: DOWNLOAD TORRENT
  • СИДЫ:

Torrent description



Robert Schumann (1810-56) :
01. Arabeske in C major, Op. 18 6:20
02-04. Concerto without orchestra op. 14 23:18
05. Blumenstück, Op. 19 7:27
06-10. Faschingsschwank aus Wien, Op. 26 21:20
11. Concerto without orchestra op. 14 - Scherzo, H / K WoO 5 No. 1 (Rejected from Op. 14) 3:07

Qobuz

Источник (релизер): ipokemongo


foobar2000 1.4.2 / Dynamic Range Meter 1.1.1
log date: 2019-04-14 12:35:01

--------------------------------------------------------------------------------
Analyzed: Christopher Park / R. Schumann: Piano Works
--------------------------------------------------------------------------------

DR Peak RMS Duration Track
--------------------------------------------------------------------------------
DR16 -5.92 dB -27.94 dB 6:20 01-Arabeske, Op. 18
DR14 -3.47 dB -23.48 dB 8:04 02-Piano Sonata No. 3 in F Minor, Op. 14 "Concerto Without Orchestra": I. Allegro brillante
DR16 -4.40 dB -27.33 dB 7:17 03-Piano Sonata No. 3 in F Minor, Op. 14 "Concerto Without Orchestra": II. Andantino de Clara Wieck
DR14 -1.66 dB -22.54 dB 7:59 04-Piano Sonata No. 3 in F Minor, Op. 14 "Concerto Without Orchestra": III. Prestissimo possibile
DR14 -9.33 dB -28.54 dB 7:27 05-Blumenstück, Op. 19
DR14 -1.68 dB -21.71 dB 8:30 06-Faschingsschwank aus Wien, Op. 26: I. Allegro
DR12 -20.66 dB -39.97 dB 2:38 07-Faschingsschwank aus Wien, Op. 26: II. Romanze
DR14 -4.05 dB -22.94 dB 2:09 08-Faschingsschwank aus Wien, Op. 26: III. Scherzino
DR12 -6.88 dB -23.36 dB 2:28 09-Faschingsschwank aus Wien, Op. 26: IV. Intermezzo
DR15 -1.79 dB -22.41 dB 5:36 10-Faschingsschwank aus Wien, Op. 26: V. Finale
DR15 -1.84 dB -23.39 dB 3:08 11-Scherzo, H/K WoO 5 No. 1 (Rejected from Op. 14)
--------------------------------------------------------------------------------

Number of tracks: 11
Official DR value: DR14

Samplerate: 96000 Hz
Channels: 2
Bits per sample: 24
Bitrate: 2110 kbps
Codec: FLAC
================================================================================



Comments (2)


20 april 2019
patatita2   
0 
PR:XCityXXX GBXXX GBПостовХС
В
Л
Х

thahks.


18 april 2019
rotihellas   
0 
PR:XCityXXX GBXXX GBПостовХС
В
Л
Х

Thanks



 

Please enable Javascript!
Пожалуйста включите Javascript, иначе данный и другие сайты могут работать не корректно! Узнать как включить Javascript можно на Google Support