Categories
Welcome to Music Torrent Tracker - Sound-Park  ι  JOIN US FOR FULL ACCESS  ι  Log In  ι  Forgot your password?

David Lively, Quatuor Cambini-Paris - Chopin (Lossless, Hi Res 2019)

Classical
 
David Lively, Quatuor Cambini-Paris - Chopin (Lossless, Hi Res 2019)
David Lively, Quatuor Cambini-Paris - Chopin (Lossless, Hi Res 2019)
Date: 17 april 2019
Added: StasOn11
Views: 857
  • ARTIST: David Lively, Quatuor Cambini-Paris
  • ALBUM / TITLE: Chopin: Concertos for Piano & String Quintet
  • RELEASE YEAR / DATE: 2019
  • STYLE: Classical
  • LABEL: Aparté
  • DURATION: 01:06:29
  • FILE FORMAT: FLAC, (tracks) 24 bits, 88,2 KHz
  • QUALITY: Lossless

  • RATING: 10 / 5    
  • VOTE:

  • DOWNLOAD: DOWNLOAD TORRENT
  • СИДЫ:

Torrent description



01-03. Chopin: Piano Concerto No. 2 in F minor, Op. 21 29:46
04-06. Chopin: Piano Concerto No. 1 in E minor, Op. 11 36:42

Prestomusic

Источник (релизер): ipokemongo

Quatuor Cambini-Paris
Thomas de Pierrefeu (soloist), David Lively (soloist)


foobar2000 1.4.2 / Dynamic Range Meter 1.1.1
log date: 2019-04-14 12:34:46

--------------------------------------------------------------------------------
Analyzed: David Lively / Chopin: Concertos for Piano & String Quintet
--------------------------------------------------------------------------------

DR Peak RMS Duration Track
--------------------------------------------------------------------------------
DR12 -1.00 dB -17.17 dB 12:14 01, 01-Piano Concerto No. 2 in F Minor, Op. 21: I. Maestoso
DR14 -1.00 dB -20.59 dB 8:33 02, 02-Piano Concerto No. 2 in F Minor, Op. 21: II. Larghetto
DR13 -1.00 dB -17.53 dB 8:59 03, 03-Piano Concerto No. 2 in F Minor, Op. 21: III. Allegro vivace
DR12 -1.00 dB -17.01 dB 17:50 04, 04-Piano Concerto No. 1 in E Minor, Op. 11: I. Allegro Maestoso
DR15 -1.90 dB -21.37 dB 8:30 05, 05-Piano Concerto No. 1 in E Minor, Op. 11: II. Romance. Larghetto
DR14 -1.00 dB -17.71 dB 10:24 06, 06-Piano Concerto No. 1 in E Minor, Op. 11: III. Rondo. Vivace
--------------------------------------------------------------------------------

Number of tracks: 6
Official DR value: DR13

Samplerate: 88200 Hz
Channels: 2
Bits per sample: 24
Bitrate: 2267 kbps
Codec: FLAC
================================================================================



Comments (4)


28 april 2019
kozara   
0 
PR:XCityXXX GBXXX GBПостовХС
В
Л
Х

Thank you


19 april 2019
edkarlos   
+1 
PR:XCityXXX GBXXX GBПостовХС
В
Л
Х

Amazing, song for my soul.... Very greatful


18 april 2019
rotihellas   
0 
PR:XCityXXX GBXXX GBПостовХС
В
Л
Х

Thanks!


18 april 2019
alsoundbel   
0 
PR:XCityXXX GBXXX GBПостовХС
В
Л
Х

muchas gracias



 

Please enable Javascript!
Пожалуйста включите Javascript, иначе данный и другие сайты могут работать не корректно! Узнать как включить Javascript можно на Google Support