Categories
Welcome to Music Torrent Tracker - Sound-Park  ι  JOIN US FOR FULL ACCESS  ι  Log In  ι  Forgot your password?

Jordan Rudess - Wired For Madness (Lossless, Hi Res 2019)

New Age  Progressive Rock
 
Date: 20 april 2019
Added: StasOn11
Views: 2033
  • ARTIST: Jordan Rudess (Dream Theater)
  • ALBUM / TITLE: Wired For Madness
  • RELEASE YEAR / DATE: 2019
  • COUNTRY: United States
  • STYLE: New Age, Progressive Rock
  • LABEL: Music Theories
  • DURATION: 01:04:02
  • FILE FORMAT: FLAC, (tracks) 24 bits, 44,1 KHz
  • QUALITY: Lossless

  • RATING: 10 / 5    
  • VOTE:

  • DOWNLOAD: DOWNLOAD TORRENT
  • СИДЫ:

Torrent description



01. Wired For Madness, Pt. 1.1 (Bring It On) (5:20)
02. Wired For Madness, Pt 1.2 (Out Of Body) (3:44)
03. Wired For Madness, Pt 1.3 (Lost Control) (2:44)
04. Wired For Madness, Pt 2.1 (Entering Delirium) (0:30)
05. Wired For Madness, Pt 2.2 (The Other Side) (2:45)
06. Wired For Madness, Pt 2.3 (Cosmic Chaos) (5:46)
07. Wired For Madness, Pt 2.4 (Angels In The Sky) (2:05)
08. Wired For Madness, Pt 2.5 (I'll Be Waiting) (2:37)
09. Wired For Madness, Pt 2.6 (Human Kaleidoscope) (5:49)
10. Wired For Madness, Pt 2.7 (Infinite Overdose) (3:09)
11. Off The Ground (4:51)
12. Drop Twist (4:10)
13. Perpetual Shine (4:29)
14. Just Can't Win (4:34)
15. Just For Today (5:26)
16. Why I Dream (6:02)

Qobuz

Источник (релизер): Andromaxvic


foobar2000 1.4.3 / Замер динамического диапазона (DR) 1.1.1
Дата отчёта: 2019-04-19 04:23:52

--------------------------------------------------------------------------------
Анализ: Jordan Rudess / Wired For Madness
--------------------------------------------------------------------------------

DR Пики RMS Продолжительность трека
--------------------------------------------------------------------------------
DR10 -0.51 дБ -13.27 дБ 5:20 01-Wired For Madness, Pt. 1.1 (Bring It On)
DR9 -0.51 дБ -11.80 дБ 3:44 02-Wired for Madness, Pt 1.2 (Out of Body)
DR8 -0.51 дБ -12.69 дБ 2:44 03-Wired for Madness, Pt 1.3 (Lost Control)
DR10 -7.75 дБ -19.91 дБ 0:30 04-Wired for Madness, Pt 2.1 (Entering Delirium)
DR11 -0.51 дБ -14.00 дБ 2:45 05-Wired for Madness, Pt 2.2 (The Other Side)
DR10 -0.51 дБ -12.68 дБ 5:46 06-Wired for Madness, Pt 2.3 (Cosmic Chaos)
DR10 -0.51 дБ -11.30 дБ 2:05 07-Wired for Madness, Pt 2.4 (Angels In the Sky)
DR9 -0.51 дБ -11.08 дБ 2:37 08-Wired for Madness, Pt 2.5 (I'll Be Waiting)
DR9 -0.51 дБ -11.45 дБ 5:49 09-Wired for Madness, Pt 2.6 (Human Kaleidoscope)
DR9 -0.51 дБ -11.16 дБ 3:09 10-Wired for Madness, Pt 2.7 (Infinite Overdose)
DR10 -0.01 дБ -13.13 дБ 4:51 11-Off the Ground
DR9 -0.54 дБ -11.25 дБ 4:10 12-Drop Twist
DR9 -0.51 дБ -11.33 дБ 4:29 13-Perpetual Shine
DR10 0.00 дБ -10.87 дБ 4:34 14-Just Can't Win
DR9 -0.51 дБ -12.80 дБ 5:26 15-Just for Today
DR9 -0.57 дБ -11.55 дБ 6:02 16-Why I Dream
--------------------------------------------------------------------------------

Количество треков: 16
Реальные значения DR: DR9

Частота: 44100 Гц
Каналов: 2
Разрядность: 24
Битрейт: 949 кбит/с
Кодек: FLAC
================================================================================



Comments (3)


20 april 2019
lanavarro66   
+1 
PR:XCityXXX GBXXX GBПостовХС
В
Л
Х

great


20 april 2019
Bagdee   
+1 
PR:XCityXXX GBXXX GBПостовХС
В
Л
Х

Thank you


20 april 2019
METALSHOP   
+1 
PR:XCityXXX GBXXX GBПостовХС
В
Л
Х

THANKS.



 
Please enable Javascript!
Пожалуйста включите Javascript, иначе данный и другие сайты могут работать не корректно! Узнать как включить Javascript можно на Google Support