Categories
Welcome to Music Torrent Tracker - Sound-Park  ι  JOIN US FOR FULL ACCESS  ι  Log In  ι  Forgot your password?

Anastasia Kobekina - Shostakovich, Weinberg & Kobekin (Lossless, Hi Res 2019)

Classical
 
Date: 23 april 2019
Added: StasOn11
Views: 1257
  • ARTIST: Anastasia Kobekina, Berner Symphonieorchester, Kevin John Edusei
  • ALBUM / TITLE: Shostakovich, Weinberg & Kobekin
  • RELEASE YEAR / DATE: 2019
  • STYLE: Classical
  • LABEL: Claves
  • DURATION: 00:52:29
  • FILE FORMAT: FLAC, (tracks) 24 bits, 96 KHz
  • QUALITY: Lossless

  • RATING: 10 / 8    
  • VOTE:

  • DOWNLOAD: DOWNLOAD TORRENT
  • СИДЫ:

Torrent description



01-04. Shostakovich: Cello Concerto No. 1 in E flat major, Op. 107 28:46
05. Weinberg: Fantasy for Cello & Orchestra Op. 52: Adagio - Andantino leggiero - Allegro con fuoco - Cadenza - Andantino leggiero - Adagio 17:54
06. Vladimir Kobekin/Владимир Кобекин: Bacchants for Cello & Orchestra 5:49

Prestomusic

Источник (релизер): ipokemongo


foobar2000 1.3.7 / Dynamic Range Meter 1.1.1
log date: 2019-04-04 10:57:45

--------------------------------------------------------------------------------
Analyzed: Anastasia Kobekina / Shostakovich, Weinberg & Kobekin
--------------------------------------------------------------------------------

DR Peak RMS Duration Track
--------------------------------------------------------------------------------
DR17 -0.21 dB -21.40 dB 6:33 01-Cello Concerto No. 1 in E-Flat Major Op. 107: I. Allegretto
DR14 -2.99 dB -23.82 dB 11:48 02-Cello Concerto No. 1 in E-Flat Major Op. 107: II. Moderato
DR13 -8.75 dB -27.40 dB 5:53 03-Cello Concerto No. 1 in E-Flat Major Op. 107: III. Cadenza
DR14 -0.25 dB -19.01 dB 4:33 04-Cello Concerto No. 1 in E-Flat Major Op. 107: IV. Allegro con moto
DR15 -5.00 dB -25.83 dB 17:55 05-Fantasy for Cello & Orchestra Op. 52: Adagio - Andantino leggiero - Allegro con fuoco - Cadenza - Andantino leggiero - Adagio
DR14 -0.21 dB -19.18 dB 5:49 06-Bacchants for Cello & Orchestra
--------------------------------------------------------------------------------

Number of tracks: 6
Official DR value: DR15

Samplerate: 96000 Hz
Channels: 2
Bits per sample: 24
Bitrate: 2602 kbps
Codec: FLAC
================================================================================



Comments (6)


6 may 2019
rotihellas   
0 
PR:XCityXXX GBXXX GBПостовХС
В
Л
Х

Thanx!!


27 april 2019
woollies66   
0 
PR:XCityXXX GBXXX GBПостовХС
В
Л
Х

Thanx


24 april 2019
sorun2011   
+1 
PR:XCityXXX GBXXX GBПостовХС
В
Л
Х

Thank you


24 april 2019
Снумик   
+1 
PR:XCityXXX GBXXX GBПостовХС
В
Л
Х

Спасибо.


23 april 2019
alsoundbel   
+1 
PR:XCityXXX GBXXX GBПостовХС
В
Л
Х

muchas gracias


23 april 2019
Bagdee   
+1 
PR:XCityXXX GBXXX GBПостовХС
В
Л
Х

Thank you



 

Please enable Javascript!
Пожалуйста включите Javascript, иначе данный и другие сайты могут работать не корректно! Узнать как включить Javascript можно на Google Support